File Size1.112 GB (1,193,499,179 bytes)
DownloadClickNUpload
DownloadGG: Part1, Part2
KrakenFiles: Part1, Part2
MultiUp: Part1
  • BdUpload
  • DownAce
  • Fichier
  • FileCloud
  • Filerio
  • FilesCdn
  • IndiShare
  • Kbagi
  • Turbobit
  • UpToBox
  • Uppit
, Part2
  • BdUpload
  • DownAce
  • Fichier
  • FileCloud
  • Filerio
  • FilesCdn
  • IndiShare
  • Kbagi
  • Turbobit
  • UpToBox
  • Uppit
, Part3
  • BdUpload
  • DownAce
  • Fichier
  • FileCloud
  • Filerio
  • FilesCdn
  • IndiShare
  • Kbagi
  • Turbobit
  • UpToBox
  • Uppit

ZippyShare: Part1, Part2, Part3
HashesCRC32: 70DDCA6F, MD5: 9A47F7CBCB360BCDA373321ED602B140, SHA1: A42B68A26BBC8DC05FF60409D3F62BD0EEA4C45A, SHA256: A21B73C2FB237A50A5957528893F58FCC76665C26212CBD115E81C5F889E1ECE, ED2K: 07D9F4375C2611E008B83D8B2D46AEE7
Screenshots
screenshotscreenshotscreenshotscreenshotscreenshot
SubtitlesAll Attachments | Signs & Songs [eng, ASS], Dialogue [eng, ASS]
Additional Info
General
Unique ID                                : 154516089420897983380197382138666549354 (0x743EB762BF9CCB0B87450A3EB60A006A)
Complete name                            : I'm Quitting Heroing - S01E04v2 [BD 1080p x264 FLAC] [Dual-Audio].mkv
Format                                   : Matroska
Format version                           : Version 4
File size                                : 1.11 GiB
Duration                                 : 23 min 41 s
Overall bit rate mode                    : Variable
Overall bit rate                         : 6 716 kb/s
Encoded date                             : UTC 2023-01-23 08:35:59
Writing application                      : mkvmerge v58.0.0 ('Supper's Ready') 64-bit
Writing library                          : libebml v1.4.2 + libmatroska v1.6.4
Attachments                              : A-OTF Ryumin Pr6 EB-KL.otf / A-OTF Ryumin Pr6 H-KL.otf / Arial Bold_0.ttf / Barmeno Extra Bold.ttf / Dimbo Regular.ttf / HighVoltage Rough.ttf / IMFellEnglish-Regular.ttf / Rosario-Bold.otf / Rosario-BoldItalic.otf

Video
ID                                       : 1
Format                                   : AVC
Format/Info                              : Advanced Video Codec
Format profile                           : High@L4
Format settings                          : CABAC / 4 Ref Frames
Format settings, CABAC                   : Yes
Format settings, Reference frames        : 4 frames
Codec ID                                 : V_MPEG4/ISO/AVC
Duration                                 : 23 min 41 s
Bit rate                                 : 4 635 kb/s
Width                                    : 1 920 pixels
Height                                   : 1 080 pixels
Display aspect ratio                     : 16:9
Frame rate mode                          : Constant
Frame rate                               : 23.976 (24000/1001) FPS
Color space                              : YUV
Chroma subsampling                       : 4:2:0
Bit depth                                : 8 bits
Scan type                                : Progressive
Bits/(Pixel*Frame)                       : 0.093
Stream size                              : 785 MiB (69%)
Writing library                          : x264 core 164
Encoding settings                        : opencl=1 / cabac=1 / ref=4 / deblock=1:-2:-2 / analyse=0x3:0x113 / me=umh / subme=9 / psy=1 / psy_rd=0.70:0.00 / mixed_ref=0 / me_range=32 / chroma_me=1 / trellis=2 / 8x8dct=1 / cqm=0 / deadzone=21,11 / fast_pskip=1 / chroma_qp_offset=-2 / threads=8 / lookahead_threads=1 / sliced_threads=0 / nr=0 / decimate=1 / interlaced=0 / bluray_compat=0 / constrained_intra=0 / bframes=9 / b_pyramid=2 / b_adapt=2 / b_bias=0 / direct=3 / weightb=1 / open_gop=0 / weightp=2 / keyint=250 / keyint_min=23 / scenecut=40 / intra_refresh=0 / rc_lookahead=40 / rc=crf / mbtree=1 / crf=16.0 / qcomp=0.70 / qpmin=10 / qpmax=20 / qpstep=4 / ip_ratio=1.40 / aq=1:1.00
Language                                 : Japanese
Default                                  : Yes
Forced                                   : No

Audio #1
ID                                       : 2
Format                                   : FLAC
Format/Info                              : Free Lossless Audio Codec
Codec ID                                 : A_FLAC
Duration                                 : 23 min 41 s
Bit rate mode                            : Variable
Bit rate                                 : 693 kb/s
Channel(s)                               : 2 channels
Channel layout                           : L R
Sampling rate                            : 48.0 kHz
Frame rate                               : 10.417 FPS (4608 SPF)
Bit depth                                : 24 bits
Compression mode                         : Lossless
Stream size                              : 118 MiB (10%)
Title                                    : ENG
Writing library                          : Lavf59.35.100
Language                                 : English
Default                                  : Yes
Forced                                   : No

Audio #2
ID                                       : 3
Format                                   : FLAC
Format/Info                              : Free Lossless Audio Codec
Codec ID                                 : A_FLAC
Duration                                 : 23 min 41 s
Bit rate mode                            : Variable
Bit rate                                 : 1 351 kb/s
Channel(s)                               : 2 channels
Channel layout                           : L R
Sampling rate                            : 48.0 kHz
Frame rate                               : 10.417 FPS (4608 SPF)
Bit depth                                : 24 bits
Compression mode                         : Lossless
Stream size                              : 229 MiB (20%)
Title                                    : JPN
Writing library                          : Lavf58.76.100
Language                                 : Japanese
Default                                  : No
Forced                                   : No

Text #1
ID                                       : 4
Format                                   : ASS
Codec ID                                 : S_TEXT/ASS
Codec ID/Info                            : Advanced Sub Station Alpha
Duration                                 : 22 min 40 s
Bit rate                                 : 11.0 kb/s
Count of elements                        : 17765
Compression mode                         : Lossless
Stream size                              : 1.78 MiB (0%)
Title                                    : Signs & Songs
Language                                 : English
Default                                  : Yes
Forced                                   : Yes

Text #2
ID                                       : 5
Format                                   : ASS
Codec ID                                 : S_TEXT/ASS
Codec ID/Info                            : Advanced Sub Station Alpha
Duration                                 : 23 min 36 s
Bit rate                                 : 10.7 kb/s
Count of elements                        : 18099
Compression mode                         : Lossless
Stream size                              : 1.81 MiB (0%)
Title                                    : Dialogue
Language                                 : English
Default                                  : No
Forced                                   : No

Menu
00:00:00.000                             : :Prologue
00:00:59.059                             : :Opening
00:02:29.024                             : :Yuusha, Yamemasu 04
00:22:05.032                             : :Ending
00:23:35.039                             : :Preview

Other Files in this Torrent
I'm Quitting Heroing - S01E04v2 [BD 1080p x264 FLAC] [Dual-Audio].mkv
beta
Anime DDL+NZB mirror
Current Time: 26/02/2024 02:29



About/FAQs

Discord