File Size895.0 MB (938,457,101 bytes)
DownloadClickNUpload | DownloadGG | KrakenFiles
MultiUp: Part1
  • BdUpload
  • DownAce
  • Fichier
  • FileCloud
  • Filerio
  • FilesCdn
  • IndiShare
  • Kbagi
  • Turbobit
  • UpToBox
  • Uppit
, Part2
  • BdUpload
  • DownAce
  • Fichier
  • FileCloud
  • Filerio
  • FilesCdn
  • IndiShare
  • Kbagi
  • Turbobit
  • UpToBox
  • Uppit

ZippyShare: Part1, Part2
HashesCRC32: DAC0CD84, MD5: B6124BD02438B3ADF046BEC15871A22D, SHA1: 19F3ADC4ACE2549E478D0EBCA989B221F66A34A9, SHA256: 281C172A2649DACC8C7E3A2FA23035DE59CC9F5B3A2AE24BB2077740C3B4248F, ED2K: BAAB901E8382620C0668D4C5AFEA825C
Screenshots
screenshotscreenshotscreenshotscreenshotscreenshot
SubtitlesAll Attachments | Signs & Songs [eng, ASS], Dialogue [eng, ASS]
Additional Info
General
Unique ID                                : 289043037539739541447022736815722489262 (0xD973AA03DCE586F6C89AD6A9AB3265AE)
Complete name                            : I'm Quitting Heroing - S01E12v2 [BD 1080p x264 FLAC] [Dual-Audio].mkv
Format                                   : Matroska
Format version                           : Version 4
File size                                : 895 MiB
Duration                                 : 23 min 41 s
Overall bit rate mode                    : Variable
Overall bit rate                         : 5 283 kb/s
Encoded date                             : UTC 2023-01-23 13:40:21
Writing application                      : mkvmerge v58.0.0 ('Supper's Ready') 64-bit
Writing library                          : libebml v1.4.2 + libmatroska v1.6.4
Attachments                              : A-OTF Ryumin Pr6 H-KL.otf / Barmeno Extra Bold.ttf / Dimbo Regular.ttf / HighVoltage Rough.ttf / IMFellEnglish-Regular.ttf / Marcellus-Regular.ttf / Rosario-Bold.otf / Typography Times Italic.ttf / A-OTF Ryumin Pr6 EB-KL.otf

Video
ID                                       : 1
Format                                   : AVC
Format/Info                              : Advanced Video Codec
Format profile                           : High@L4
Format settings                          : CABAC / 4 Ref Frames
Format settings, CABAC                   : Yes
Format settings, Reference frames        : 4 frames
Codec ID                                 : V_MPEG4/ISO/AVC
Duration                                 : 23 min 41 s
Bit rate                                 : 3 266 kb/s
Width                                    : 1 920 pixels
Height                                   : 1 080 pixels
Display aspect ratio                     : 16:9
Frame rate mode                          : Constant
Frame rate                               : 23.976 (24000/1001) FPS
Color space                              : YUV
Chroma subsampling                       : 4:2:0
Bit depth                                : 8 bits
Scan type                                : Progressive
Bits/(Pixel*Frame)                       : 0.066
Stream size                              : 553 MiB (62%)
Writing library                          : x264 core 164
Encoding settings                        : opencl=1 / cabac=1 / ref=4 / deblock=1:-2:-2 / analyse=0x3:0x113 / me=umh / subme=9 / psy=1 / psy_rd=0.70:0.00 / mixed_ref=0 / me_range=32 / chroma_me=1 / trellis=2 / 8x8dct=1 / cqm=0 / deadzone=21,11 / fast_pskip=1 / chroma_qp_offset=-2 / threads=8 / lookahead_threads=1 / sliced_threads=0 / nr=0 / decimate=1 / interlaced=0 / bluray_compat=0 / constrained_intra=0 / bframes=9 / b_pyramid=2 / b_adapt=2 / b_bias=0 / direct=3 / weightb=1 / open_gop=0 / weightp=2 / keyint=250 / keyint_min=23 / scenecut=40 / intra_refresh=0 / rc_lookahead=40 / rc=crf / mbtree=1 / crf=16.0 / qcomp=0.70 / qpmin=10 / qpmax=20 / qpstep=4 / ip_ratio=1.40 / aq=1:1.00
Language                                 : Japanese
Default                                  : Yes
Forced                                   : No

Audio #1
ID                                       : 2
Format                                   : FLAC
Format/Info                              : Free Lossless Audio Codec
Codec ID                                 : A_FLAC
Duration                                 : 23 min 40 s
Bit rate mode                            : Variable
Bit rate                                 : 672 kb/s
Channel(s)                               : 2 channels
Channel layout                           : L R
Sampling rate                            : 48.0 kHz
Frame rate                               : 10.417 FPS (4608 SPF)
Bit depth                                : 24 bits
Compression mode                         : Lossless
Delay relative to video                  : 150 ms
Stream size                              : 114 MiB (13%)
Title                                    : ENG
Writing library                          : Lavf59.35.100
Language                                 : English
Default                                  : Yes
Forced                                   : No

Audio #2
ID                                       : 3
Format                                   : FLAC
Format/Info                              : Free Lossless Audio Codec
Codec ID                                 : A_FLAC
Duration                                 : 23 min 41 s
Bit rate mode                            : Variable
Bit rate                                 : 1 294 kb/s
Channel(s)                               : 2 channels
Channel layout                           : L R
Sampling rate                            : 48.0 kHz
Frame rate                               : 10.417 FPS (4608 SPF)
Bit depth                                : 24 bits
Compression mode                         : Lossless
Stream size                              : 219 MiB (24%)
Title                                    : JPN
Writing library                          : Lavf58.76.100
Language                                 : Japanese
Default                                  : No
Forced                                   : No

Text #1
ID                                       : 4
Format                                   : ASS
Codec ID                                 : S_TEXT/ASS
Codec ID/Info                            : Advanced Sub Station Alpha
Duration                                 : 23 min 30 s
Bit rate                                 : 16.6 kb/s
Count of elements                        : 20502
Compression mode                         : Lossless
Stream size                              : 2.79 MiB (0%)
Title                                    : Signs & Songs
Language                                 : English
Default                                  : Yes
Forced                                   : Yes

Text #2
ID                                       : 5
Format                                   : ASS
Codec ID                                 : S_TEXT/ASS
Codec ID/Info                            : Advanced Sub Station Alpha
Duration                                 : 23 min 33 s
Bit rate                                 : 16.7 kb/s
Count of elements                        : 20778
Compression mode                         : Lossless
Stream size                              : 2.81 MiB (0%)
Title                                    : Dialogue
Language                                 : English
Default                                  : No
Forced                                   : No

Menu
00:00:00.000                             : :Opening
00:01:30.007                             : :Yuusha, Yamemasu 12
00:22:07.618                             : :Ending

Other Files in this Torrent
I'm Quitting Heroing - S01E12v2 [BD 1080p x264 FLAC] [Dual-Audio].mkv
beta
Anime DDL+NZB mirror
Current Time: 26/02/2024 02:23



About/FAQs

Discord