File Size1.143 GB (1,227,495,042 bytes)
DownloadClickNUpload
DownloadGG: Part1, Part2
KrakenFiles: Part1, Part2
MultiUp: Part1
  • BdUpload
  • DownAce
  • Fichier
  • FileCloud
  • Filerio
  • FilesCdn
  • IndiShare
  • Kbagi
  • Turbobit
  • UpToBox
  • Uppit
, Part2
  • BdUpload
  • DownAce
  • Fichier
  • FileCloud
  • Filerio
  • FilesCdn
  • IndiShare
  • Kbagi
  • Turbobit
  • UpToBox
  • Uppit
, Part3
  • BdUpload
  • DownAce
  • Fichier
  • FileCloud
  • Filerio
  • FilesCdn
  • IndiShare
  • Kbagi
  • Turbobit
  • UpToBox
  • Uppit

ZippyShare: Part1, Part2, Part3
HashesCRC32: 58C37F79, MD5: F04CA8698DABD33BEFBA839BE5993C5C, SHA1: D5DE7DD2863A0FFEE00936EC6CD1ECE9F6AC4210, SHA256: 4ADF5432CF74D9F5EE04A9D11110F69500064D372EEA50D97F8A6415E3BBDC2C, ED2K: FD6167AEBE635C424E51AAB399BE0551
Screenshots
screenshotscreenshotscreenshotscreenshotscreenshot
SubtitlesAll Attachments | Signs & Songs [eng, ASS], Dialogue [eng, ASS]
Additional Info
General
Unique ID                                : 176341054570183128141149107035943168490 (0x84AA0D3EF94AF5D4FCF51427CFFB69EA)
Complete name                            : I'm Quitting Heroing - S01E03v2 [BD 1080p x264 FLAC] [Dual-Audio].mkv
Format                                   : Matroska
Format version                           : Version 4
File size                                : 1.14 GiB
Duration                                 : 23 min 41 s
Overall bit rate mode                    : Variable
Overall bit rate                         : 6 907 kb/s
Encoded date                             : UTC 2023-01-23 08:35:55
Writing application                      : mkvmerge v58.0.0 ('Supper's Ready') 64-bit
Writing library                          : libebml v1.4.2 + libmatroska v1.6.4
Attachments                              : A-OTF Ryumin Pr6 EB-KL.otf / A-OTF Ryumin Pr6 H-KL.otf / Barmeno Extra Bold.ttf / Dimbo Regular.ttf / HighVoltage Rough.ttf / IMFellEnglish-Regular.ttf / Rosario-Bold.otf / Rosario-BoldItalic.otf

Video
ID                                       : 1
Format                                   : AVC
Format/Info                              : Advanced Video Codec
Format profile                           : High@L4
Format settings                          : CABAC / 4 Ref Frames
Format settings, CABAC                   : Yes
Format settings, Reference frames        : 4 frames
Codec ID                                 : V_MPEG4/ISO/AVC
Duration                                 : 23 min 41 s
Bit rate                                 : 4 664 kb/s
Width                                    : 1 920 pixels
Height                                   : 1 080 pixels
Display aspect ratio                     : 16:9
Frame rate mode                          : Constant
Frame rate                               : 23.976 (24000/1001) FPS
Color space                              : YUV
Chroma subsampling                       : 4:2:0
Bit depth                                : 8 bits
Scan type                                : Progressive
Bits/(Pixel*Frame)                       : 0.094
Stream size                              : 790 MiB (67%)
Writing library                          : x264 core 164
Encoding settings                        : opencl=1 / cabac=1 / ref=4 / deblock=1:-2:-2 / analyse=0x3:0x113 / me=umh / subme=9 / psy=1 / psy_rd=0.70:0.00 / mixed_ref=0 / me_range=32 / chroma_me=1 / trellis=2 / 8x8dct=1 / cqm=0 / deadzone=21,11 / fast_pskip=1 / chroma_qp_offset=-2 / threads=8 / lookahead_threads=1 / sliced_threads=0 / nr=0 / decimate=1 / interlaced=0 / bluray_compat=0 / constrained_intra=0 / bframes=9 / b_pyramid=2 / b_adapt=2 / b_bias=0 / direct=3 / weightb=1 / open_gop=0 / weightp=2 / keyint=250 / keyint_min=23 / scenecut=40 / intra_refresh=0 / rc_lookahead=40 / rc=crf / mbtree=1 / crf=16.0 / qcomp=0.70 / qpmin=10 / qpmax=20 / qpstep=4 / ip_ratio=1.40 / aq=1:1.00
Language                                 : Japanese
Default                                  : Yes
Forced                                   : No

Audio #1
ID                                       : 2
Format                                   : FLAC
Format/Info                              : Free Lossless Audio Codec
Codec ID                                 : A_FLAC
Duration                                 : 23 min 41 s
Bit rate mode                            : Variable
Bit rate                                 : 757 kb/s
Channel(s)                               : 2 channels
Channel layout                           : L R
Sampling rate                            : 48.0 kHz
Frame rate                               : 10.417 FPS (4608 SPF)
Bit depth                                : 24 bits
Compression mode                         : Lossless
Stream size                              : 128 MiB (11%)
Title                                    : ENG
Writing library                          : Lavf59.35.100
Language                                 : English
Default                                  : Yes
Forced                                   : No

Audio #2
ID                                       : 3
Format                                   : FLAC
Format/Info                              : Free Lossless Audio Codec
Codec ID                                 : A_FLAC
Duration                                 : 23 min 41 s
Bit rate mode                            : Variable
Bit rate                                 : 1 450 kb/s
Channel(s)                               : 2 channels
Channel layout                           : L R
Sampling rate                            : 48.0 kHz
Frame rate                               : 10.417 FPS (4608 SPF)
Bit depth                                : 24 bits
Compression mode                         : Lossless
Stream size                              : 246 MiB (21%)
Title                                    : JPN
Writing library                          : Lavf58.76.100
Language                                 : Japanese
Default                                  : No
Forced                                   : No

Text #1
ID                                       : 4
Format                                   : ASS
Codec ID                                 : S_TEXT/ASS
Codec ID/Info                            : Advanced Sub Station Alpha
Duration                                 : 22 min 34 s
Bit rate                                 : 11.1 kb/s
Count of elements                        : 17765
Compression mode                         : Lossless
Stream size                              : 1.78 MiB (0%)
Title                                    : Signs & Songs
Language                                 : English
Default                                  : Yes
Forced                                   : Yes

Text #2
ID                                       : 5
Format                                   : ASS
Codec ID                                 : S_TEXT/ASS
Codec ID/Info                            : Advanced Sub Station Alpha
Duration                                 : 23 min 36 s
Bit rate                                 : 10.7 kb/s
Count of elements                        : 18070
Compression mode                         : Lossless
Stream size                              : 1.80 MiB (0%)
Title                                    : Dialogue
Language                                 : English
Default                                  : No
Forced                                   : No

Menu
00:00:00.000                             : :Prologue
00:01:04.982                             : :Opening
00:02:35.030                             : :Yuusha, Yamemasu 03
00:22:04.990                             : :Ending
00:23:34.997                             : :Preview

Other Files in this Torrent
I'm Quitting Heroing - S01E03v2 [BD 1080p x264 FLAC] [Dual-Audio].mkv
beta
Anime DDL+NZB mirror
Current Time: 26/02/2024 00:36



About/FAQs

Discord