[Harunatsu] Strike the Blood III - NCOP [BD 720p-AAC][F3931F5D].mkv


File Size63.06 MB (66,120,361 bytes)
DownloadClickNUpload | Go4Up | Jheberg | MultiUp | OpenLoad | Sendspace | ZippyShare
HashesCRC32: F3931F5D, MD5: 9430EB6251B642A236B5F19D5417CAC1, SHA1: 7F359D0E8F6BC7F67409B8B5C0F81F2E1A13B370, SHA256: D26C2D4837BD3B9E17EAD30CF3DD0EC042734460B7E9741184C35569B233A644, ED2K: 7827639ED95B2FB1D2621D7FE343DCEB
Screenshots
screenshotscreenshot
SubtitlesAll Attachments | Harunatsu [eng, ASS]
Additional Info
General
Unique ID                                : 12070153636176873212225003356660019689 (0x914A0852D6DF0B91E704912796DB1E9)
Complete name                            : [Harunatsu] Strike the Blood III - NCOP [BD 720p-AAC][F3931F5D].mkv
Format                                   : Matroska
Format version                           : Version 4
File size                                : 63.1 MiB
Duration                                 : 1 min 32 s
Overall bit rate                         : 5 744 kb/s
Encoded date                             : UTC 2019-02-13 11:50:09
Writing application                      : mkvmerge v29.0.0 ('Like It Or Not') 64-bit
Writing library                          : libebml v1.3.6 + libmatroska v1.4.9
Attachments                              : pala_5.ttf / IwaOMinPro_0.ttf

Video
ID                                       : 1
Format                                   : AVC
Format/Info                              : Advanced Video Codec
Format profile                           : High 4:4:4 Predictive@L5.2
Format settings                          : CABAC / 16 Ref Frames
Format settings, CABAC                   : Yes
Format settings, ReFrames                : 16 frames
Codec ID                                 : V_MPEG4/ISO/AVC
Duration                                 : 1 min 32 s
Bit rate                                 : 5 291 kb/s
Width                                    : 1 280 pixels
Height                                   : 720 pixels
Display aspect ratio                     : 16:9
Frame rate mode                          : Constant
Frame rate                               : 23.976 (24000/1001) FPS
Color space                              : YUV
Chroma subsampling                       : 4:4:4
Bit depth                                : 10 bits
Scan type                                : Progressive
Bits/(Pixel*Frame)                       : 0.239
Stream size                              : 58.1 MiB (92%)
Title                                    : 720p 10-bit BD
Writing library                          : x264 core 152 r2851 ba24899
Encoding settings                        : cabac=1 / ref=16 / deblock=1:-1:-1 / analyse=0x1:0x131 / me=umh / subme=11 / psy=1 / psy_rd=0.75:0.00 / mixed_ref=1 / me_range=32 / chroma_me=1 / trellis=2 / 8x8dct=0 / cqm=0 / deadzone=21,11 / fast_pskip=1 / chroma_qp_offset=2 / threads=18 / lookahead_threads=4 / sliced_threads=0 / nr=0 / decimate=0 / interlaced=0 / bluray_compat=0 / stitchable=1 / constrained_intra=0 / bframes=16 / b_pyramid=2 / b_adapt=2 / b_bias=0 / direct=3 / weightb=1 / open_gop=0 / weightp=2 / keyint=250 / keyint_min=24 / scenecut=40 / intra_refresh=0 / rc_lookahead=48 / rc=crf / mbtree=1 / crf=14.5 / qcomp=0.75 / qpmin=0 / qpmax=81 / qpstep=4 / ip_ratio=1.40 / aq=3:0.75
Language                                 : Japanese
Default                                  : Yes
Forced                                   : No
Color range                              : Limited
Matrix coefficients                      : BT.709

Audio
ID                                       : 2
Format                                   : AAC LC
Format/Info                              : Advanced Audio Codec Low Complexity
Codec ID                                 : A_AAC-2
Duration                                 : 1 min 32 s
Bit rate                                 : 346 kb/s
Channel(s)                               : 2 channels
Channel layout                           : L R
Sampling rate                            : 48.0 kHz
Frame rate                               : 46.875 FPS (1024 SPF)
Compression mode                         : Lossy
Stream size                              : 3.79 MiB (6%)
Language                                 : Japanese
Default                                  : Yes
Forced                                   : No

Text
ID                                       : 3
Format                                   : ASS
Codec ID                                 : S_TEXT/ASS
Codec ID/Info                            : Advanced Sub Station Alpha
Duration                                 : 1 min 20 s
Bit rate                                 : 2 110 b/s
Count of elements                        : 121
Compression mode                         : Lossless
Stream size                              : 20.7 KiB (0%)
Title                                    : Harunatsu
Language                                 : English
Default                                  : Yes
Forced                                   : No

Other Files in this Torrent
[Harunatsu] Strike the Blood III - NCOP [BD 720p-AAC][F3931F5D].mkv
beta
Anime DDL+NZB mirror
Current Time: 22/11/2019 03:16



About/FAQs