[Harunatsu] Strike the Blood III - 02 [BD 720p-AAC][07739BC9].mkv


File Size487.0 MB (510,610,276 bytes)
DownloadClickNUpload | Go4Up | Jheberg
  • 1Fichier
  • FileCloud
  • Free
  • Jeodrive
  • Openload
  • Rockfile
  • Turbobit
  • Tusfiles
  • UpToBox
  • UploadedTo
| MultiUp | OpenLoad | ZippyShare
Sendspace: Part1, Part2
HashesCRC32: 07739BC9, MD5: 46058337FF496B01F7C231936DDCCDBB, SHA1: 7BD5887E378CDF4F278C7C2F68D3976B2D99D1E6, SHA256: 73C670FFA664988B82D519559BBF17E1EC6F2A51A528DA02D41A3F750598780B, ED2K: 1015F4F81FBAEEE14B6B1598DB405F35
Screenshots
screenshotscreenshotscreenshotscreenshotscreenshot
SubtitlesAll Attachments | Harunatsu [eng, ASS]
Additional Info
General
Unique ID                                : 304542074553920871097186758562601411416 (0xE51CAB89C49216AADF78D7A575E2A358)
Complete name                            : [Harunatsu] Strike the Blood III - 02 [BD 720p-AAC][07739BC9].mkv
Format                                   : Matroska
Format version                           : Version 4
File size                                : 487 MiB
Duration                                 : 26 min 29 s
Overall bit rate                         : 2 570 kb/s
Encoded date                             : UTC 2019-02-13 11:44:27
Writing application                      : mkvmerge v29.0.0 ('Like It Or Not') 64-bit
Writing library                          : libebml v1.3.6 + libmatroska v1.4.9
Attachments                              : KozGoPro-Bold.otf / KozGoPro-Medium_B.otf / pala_5.ttf / Edmondsans-Bold_7.otf / IwaOMinPro_0.ttf

Video
ID                                       : 1
Format                                   : AVC
Format/Info                              : Advanced Video Codec
Format profile                           : High 4:4:4 Predictive@L5.2
Format settings                          : CABAC / 16 Ref Frames
Format settings, CABAC                   : Yes
Format settings, ReFrames                : 16 frames
Codec ID                                 : V_MPEG4/ISO/AVC
Duration                                 : 26 min 27 s
Bit rate                                 : 2 252 kb/s
Width                                    : 1 280 pixels
Height                                   : 720 pixels
Display aspect ratio                     : 16:9
Frame rate mode                          : Constant
Frame rate                               : 23.976 (24000/1001) FPS
Color space                              : YUV
Chroma subsampling                       : 4:4:4
Bit depth                                : 10 bits
Scan type                                : Progressive
Bits/(Pixel*Frame)                       : 0.102
Stream size                              : 426 MiB (88%)
Title                                    : 720p 10-bit BD
Writing library                          : x264 core 152 r2851 ba24899
Encoding settings                        : cabac=1 / ref=16 / deblock=1:-1:-1 / analyse=0x1:0x131 / me=umh / subme=11 / psy=1 / psy_rd=0.75:0.00 / mixed_ref=1 / me_range=32 / chroma_me=1 / trellis=2 / 8x8dct=0 / cqm=0 / deadzone=21,11 / fast_pskip=1 / chroma_qp_offset=2 / threads=18 / lookahead_threads=4 / sliced_threads=0 / nr=0 / decimate=0 / interlaced=0 / bluray_compat=0 / stitchable=1 / constrained_intra=0 / bframes=16 / b_pyramid=2 / b_adapt=2 / b_bias=0 / direct=3 / weightb=1 / open_gop=0 / weightp=2 / keyint=250 / keyint_min=24 / scenecut=40 / intra_refresh=0 / rc_lookahead=48 / rc=crf / mbtree=1 / crf=14.0 / qcomp=0.75 / qpmin=0 / qpmax=81 / qpstep=4 / ip_ratio=1.40 / aq=3:0.75 / zones=2878,5034,crf=14.5/35869,38062,crf=15.5
Language                                 : Japanese
Default                                  : Yes
Forced                                   : No
Color range                              : Limited
Matrix coefficients                      : BT.709

Audio
ID                                       : 2
Format                                   : AAC LC
Format/Info                              : Advanced Audio Codec Low Complexity
Codec ID                                 : A_AAC-2
Duration                                 : 26 min 27 s
Bit rate                                 : 276 kb/s
Channel(s)                               : 2 channels
Channel layout                           : L R
Sampling rate                            : 48.0 kHz
Frame rate                               : 46.875 FPS (1024 SPF)
Compression mode                         : Lossy
Stream size                              : 52.2 MiB (11%)
Language                                 : Japanese
Default                                  : Yes
Forced                                   : No

Text
ID                                       : 3
Format                                   : ASS
Codec ID                                 : S_TEXT/ASS
Codec ID/Info                            : Advanced Sub Station Alpha
Duration                                 : 26 min 21 s
Bit rate                                 : 538 b/s
Count of elements                        : 939
Compression mode                         : Lossless
Stream size                              : 104 KiB (0%)
Title                                    : Harunatsu
Language                                 : English
Default                                  : Yes
Forced                                   : No

Menu
00:00:00.000                             : en:Intro
00:02:00.010                             : en:OP
00:03:29.980                             : en:Part A
00:15:34.490                             : en:Half Time
00:15:38.000                             : en:Part B
00:24:56.010                             : en:ED

Other Files in this Torrent
[Harunatsu] Strike the Blood III - 02 [BD 720p-AAC][07739BC9].mkv
beta
Anime DDL+NZB mirror
Current Time: 12/12/2019 03:19



About/FAQs