[Harunatsu] Strike the Blood III - NCED [BD 720p-AAC][5686AB6F].mkv


File Size14.99 MB (15,720,175 bytes)
DownloadClickNUpload | Go4Up | Jheberg | MultiUp | OpenLoad | Sendspace | ZippyShare
HashesCRC32: 5686AB6F, MD5: 0A1868EDCCCEEDDDACF380E91ABB8917, SHA1: 2F2204BB311B87C0EC1FD0BAE7FEDFF30B8DF5F1, SHA256: F5C46A1CD1257B0AD5B1AB7F212583BDE1E3D13F6527C322CA742B33595E87A6, ED2K: 163F387F33E7FCDA17EA8B1C142EC8E5
Screenshots
screenshotscreenshot
SubtitlesAll Attachments | Harunatsu [eng, ASS]
Additional Info
General
Unique ID                                : 176873221941805426839771619453105347285 (0x85108B1F86A23A608CC7444B481C1AD5)
Complete name                            : [Harunatsu] Strike the Blood III - NCED [BD 720p-AAC][5686AB6F].mkv
Format                                   : Matroska
Format version                           : Version 4
File size                                : 15.0 MiB
Duration                                 : 1 min 33 s
Overall bit rate                         : 1 351 kb/s
Encoded date                             : UTC 2019-02-13 11:56:47
Writing application                      : mkvmerge v29.0.0 ('Like It Or Not') 64-bit
Writing library                          : libebml v1.3.6 + libmatroska v1.4.9
Attachments                              : pala_5.ttf / IwaOMinPro_0.ttf

Video
ID                                       : 1
Format                                   : AVC
Format/Info                              : Advanced Video Codec
Format profile                           : High 4:4:4 Predictive@L5.2
Format settings                          : CABAC / 16 Ref Frames
Format settings, CABAC                   : Yes
Format settings, ReFrames                : 16 frames
Codec ID                                 : V_MPEG4/ISO/AVC
Duration                                 : 1 min 33 s
Bit rate                                 : 909 kb/s
Width                                    : 1 280 pixels
Height                                   : 720 pixels
Display aspect ratio                     : 16:9
Frame rate mode                          : Constant
Frame rate                               : 23.976 (24000/1001) FPS
Color space                              : YUV
Chroma subsampling                       : 4:4:4
Bit depth                                : 10 bits
Scan type                                : Progressive
Bits/(Pixel*Frame)                       : 0.041
Stream size                              : 10.1 MiB (67%)
Title                                    : 720p 10-bit BD
Writing library                          : x264 core 152 r2851 ba24899
Encoding settings                        : cabac=1 / ref=16 / deblock=1:-1:-1 / analyse=0x1:0x131 / me=umh / subme=11 / psy=1 / psy_rd=0.75:0.00 / mixed_ref=1 / me_range=32 / chroma_me=1 / trellis=2 / 8x8dct=0 / cqm=0 / deadzone=21,11 / fast_pskip=1 / chroma_qp_offset=2 / threads=18 / lookahead_threads=4 / sliced_threads=0 / nr=0 / decimate=0 / interlaced=0 / bluray_compat=0 / stitchable=1 / constrained_intra=0 / bframes=16 / b_pyramid=2 / b_adapt=2 / b_bias=0 / direct=3 / weightb=1 / open_gop=0 / weightp=2 / keyint=250 / keyint_min=24 / scenecut=40 / intra_refresh=0 / rc_lookahead=48 / rc=crf / mbtree=1 / crf=14.5 / qcomp=0.75 / qpmin=0 / qpmax=81 / qpstep=4 / ip_ratio=1.40 / aq=3:0.75
Language                                 : Japanese
Default                                  : Yes
Forced                                   : No
Color range                              : Limited
Matrix coefficients                      : BT.709

Audio
ID                                       : 2
Format                                   : AAC LC
Format/Info                              : Advanced Audio Codec Low Complexity
Codec ID                                 : A_AAC-2
Duration                                 : 1 min 33 s
Bit rate                                 : 337 kb/s
Channel(s)                               : 2 channels
Channel layout                           : L R
Sampling rate                            : 48.0 kHz
Frame rate                               : 46.875 FPS (1024 SPF)
Compression mode                         : Lossy
Stream size                              : 3.74 MiB (25%)
Language                                 : Japanese
Default                                  : Yes
Forced                                   : No

Text
ID                                       : 3
Format                                   : ASS
Codec ID                                 : S_TEXT/ASS
Codec ID/Info                            : Advanced Sub Station Alpha
Duration                                 : 1 min 23 s
Bit rate                                 : 596 b/s
Count of elements                        : 43
Compression mode                         : Lossless
Stream size                              : 6.11 KiB (0%)
Title                                    : Harunatsu
Language                                 : English
Default                                  : Yes
Forced                                   : No

Other Files in this Torrent
[Harunatsu] Strike the Blood III - NCED [BD 720p-AAC][5686AB6F].mkv
beta
Anime DDL+NZB mirror
Current Time: 14/11/2019 11:47



About/FAQs