[Harunatsu] Strike the Blood III - 01 [BD 720p-AAC][643A5A65].mkv


File Size426.8 MB (447,549,291 bytes)
DownloadClickNUpload | Go4Up | Jheberg
  • 1Fichier
  • FileCloud
  • Free
  • Jeodrive
  • Openload
  • Rockfile
  • Turbobit
  • Tusfiles
  • UpToBox
  • UploadedTo
| MultiUp | OpenLoad | ZippyShare
Sendspace: Part1, Part2
HashesCRC32: 643A5A65, MD5: E89431F2F88A7F8AE3151CC7E4BA26EB, SHA1: ED08E2F90511E33D7CC74BC23FA35689D0C0F964, SHA256: 4A47798551358B3460C903E35BB004C383E411C2050F398451CE1E038447CCD7, ED2K: 47E00F6589738595B3AE83C7575968DF
Screenshots
screenshotscreenshotscreenshotscreenshotscreenshot
SubtitlesAll Attachments | Harunatsu [eng, ASS]
Additional Info
General
Unique ID                                : 75238099398839711738342675783882804962 (0x389A54B32E99D0E68CBCFC53471E8EE2)
Complete name                            : [Harunatsu] Strike the Blood III - 01 [BD 720p-AAC][643A5A65].mkv
Format                                   : Matroska
Format version                           : Version 4
File size                                : 427 MiB
Duration                                 : 26 min 48 s
Overall bit rate                         : 2 226 kb/s
Encoded date                             : UTC 2019-02-13 10:52:25
Writing application                      : mkvmerge v29.0.0 ('Like It Or Not') 64-bit
Writing library                          : libebml v1.3.6 + libmatroska v1.4.9
Attachments                              : Edmondsans-Bold_7.otf / IwaOMinPro_0.ttf / KozGoPro-Bold.otf / KozGoPro-Medium_B.otf / KozGoPro-Regular_5.otf / LT_Woodland_A.TTF / pala_5.ttf / AVGARDNECLIPSE_C.TTF

Video
ID                                       : 1
Format                                   : AVC
Format/Info                              : Advanced Video Codec
Format profile                           : High 4:4:4 Predictive@L5.2
Format settings                          : CABAC / 16 Ref Frames
Format settings, CABAC                   : Yes
Format settings, ReFrames                : 16 frames
Codec ID                                 : V_MPEG4/ISO/AVC
Duration                                 : 26 min 48 s
Bit rate                                 : 1 857 kb/s
Width                                    : 1 280 pixels
Height                                   : 720 pixels
Display aspect ratio                     : 16:9
Frame rate mode                          : Constant
Frame rate                               : 23.976 (24000/1001) FPS
Color space                              : YUV
Chroma subsampling                       : 4:4:4
Bit depth                                : 10 bits
Scan type                                : Progressive
Bits/(Pixel*Frame)                       : 0.084
Stream size                              : 356 MiB (83%)
Title                                    : 720p 10-bit BD
Writing library                          : x264 core 152 r2851 ba24899
Encoding settings                        : cabac=1 / ref=16 / deblock=1:-1:-1 / analyse=0x1:0x131 / me=umh / subme=11 / psy=1 / psy_rd=0.75:0.00 / mixed_ref=1 / me_range=32 / chroma_me=1 / trellis=2 / 8x8dct=0 / cqm=0 / deadzone=21,11 / fast_pskip=1 / chroma_qp_offset=2 / threads=18 / lookahead_threads=4 / sliced_threads=0 / nr=0 / decimate=0 / interlaced=0 / bluray_compat=0 / stitchable=1 / constrained_intra=0 / bframes=16 / b_pyramid=2 / b_adapt=2 / b_bias=0 / direct=3 / weightb=1 / open_gop=0 / weightp=2 / keyint=250 / keyint_min=24 / scenecut=40 / intra_refresh=0 / rc_lookahead=48 / rc=crf / mbtree=1 / crf=14.0 / qcomp=0.75 / qpmin=0 / qpmax=81 / qpstep=4 / ip_ratio=1.40 / aq=3:0.75 / zones=3050,5249,crf=14.5/36394,38566,crf=15.5
Language                                 : Japanese
Default                                  : Yes
Forced                                   : No
Color range                              : Limited
Matrix coefficients                      : BT.709

Audio
ID                                       : 2
Format                                   : AAC LC
Format/Info                              : Advanced Audio Codec Low Complexity
Codec ID                                 : A_AAC-2
Duration                                 : 26 min 48 s
Bit rate                                 : 265 kb/s
Channel(s)                               : 2 channels
Channel layout                           : L R
Sampling rate                            : 48.0 kHz
Frame rate                               : 46.875 FPS (1024 SPF)
Compression mode                         : Lossy
Stream size                              : 49.8 MiB (12%)
Language                                 : Japanese
Default                                  : Yes
Forced                                   : No

Text
ID                                       : 3
Format                                   : ASS
Codec ID                                 : S_TEXT/ASS
Codec ID/Info                            : Advanced Sub Station Alpha
Duration                                 : 26 min 37 s
Bit rate                                 : 41.0 kb/s
Count of elements                        : 39611
Compression mode                         : Lossless
Stream size                              : 7.82 MiB (2%)
Title                                    : Harunatsu
Language                                 : English
Default                                  : Yes
Forced                                   : No

Menu
00:00:00.000                             : en:Intro
00:02:08.940                             : en:OP
00:03:38.940                             : en:Part A
00:13:28.450                             : en:Half Time
00:13:31.950                             : en:Part B
00:25:17.910                             : en:ED

Other Files in this Torrent
[Harunatsu] Strike the Blood III - 01 [BD 720p-AAC][643A5A65].mkv
beta
Anime DDL+NZB mirror
Current Time: 19/11/2019 00:30



About/FAQs