File Size181.7 MB (190,529,788 bytes)
DownloadClickNUpload | Jheberg | MultiUp
  • BdUpload
  • DownAce
  • Fichier
  • FileCloud
  • Filerio
  • FilesCdn
  • IndiShare
  • Kbagi
  • Turbobit
  • UpToBox
  • Uppit
| Sendspace | SolidFiles | ZippyShare
HashesCRC32: 045957EF, MD5: 6C388428CBDAA9F599394C00ED3B8F74, SHA1: 2D2935F486363FFE28EA4ED17540E2C2DB5F2BB0, SHA256: 196C6BB94753DD3A33ED63AC8DB81094306577AC9D2F8397CAE2421CC61F394B, ED2K: AE590FEB9655A6E114786644E0D655AF
Screenshots
screenshotscreenshotscreenshotscreenshotscreenshot
SubtitlesAll Attachments | HS [eng, ASS], eng [ASS], fre [ASS], spa [ASS], spa [ASS], por [ASS], ara [ASS], rus [ASS], ger [ASS], ita [ASS]
Additional Info
General
Unique ID                                : 285929350517844549794087860601769489544 (0xD71BFD6475D003F8B847CC18E380F488)
Complete name                            : [Hakata Ramen] Kyokou Suiri S01E05.mkv
Format                                   : Matroska
Format version                           : Version 4
File size                                : 182 MiB
Duration                                 : 24 min 0 s
Overall bit rate                         : 1 058 kb/s
Movie name                               : [Hakata Ramen] Kyokou Suiri S01E05 ~GodZilla
Encoded date                             : UTC 2020-02-08 20:22:11
Writing application                      : mkvmerge v43.0.0 ('The Quartermaster') 64-bit
Writing library                          : libebml v1.3.10 + libmatroska v1.5.2
Attachments                              : OpenSans-Semibold.ttf

Video
ID                                       : 1
Format                                   : HEVC
Format/Info                              : High Efficiency Video Coding
Format profile                           : Main@L4@Main
Codec ID                                 : V_MPEGH/ISO/HEVC
Duration                                 : 24 min 0 s
Bit rate                                 : 957 kb/s
Width                                    : 1 920 pixels
Height                                   : 1 080 pixels
Display aspect ratio                     : 16:9
Frame rate mode                          : Constant
Frame rate                               : 23.976 (24000/1001) FPS
Color space                              : YUV
Chroma subsampling                       : 4:2:0
Bit depth                                : 8 bits
Bits/(Pixel*Frame)                       : 0.019
Stream size                              : 164 MiB (90%)
Title                                    : [Hakata Ramen] HEVC/.x265 (GodZilla)
Language                                 : Japanese
Default                                  : Yes
Forced                                   : No
Color range                              : Limited
Color primaries                          : BT.709
Transfer characteristics                 : BT.709
Matrix coefficients                      : BT.709

Audio
ID                                       : 2
Format                                   : Opus
Codec ID                                 : A_OPUS
Duration                                 : 24 min 0 s
Bit rate                                 : 96.1 kb/s
Channel(s)                               : 2 channels
Channel layout                           : L R
Sampling rate                            : 44.1 kHz
Frame rate                               : 50.000 FPS (882 SPF)
Compression mode                         : Lossy
Stream size                              : 16.5 MiB (9%)
Title                                    : [Hakata Ramen] 2 Channels Stereo (Doc_Ramen)
Language                                 : Japanese
Default                                  : Yes
Forced                                   : No

Text #1
ID                                       : 3
Format                                   : ASS
Codec ID                                 : S_TEXT/ASS
Codec ID/Info                            : Advanced Sub Station Alpha
Duration                                 : 23 min 47 s
Bit rate                                 : 144 b/s
Count of elements                        : 339
Compression mode                         : Lossless
Stream size                              : 25.2 KiB (0%)
Title                                    : HS
Language                                 : English
Default                                  : No
Forced                                   : No

Text #2
ID                                       : 4
Format                                   : ASS
Codec ID                                 : S_TEXT/ASS
Codec ID/Info                            : Advanced Sub Station Alpha
Duration                                 : 23 min 47 s
Bit rate                                 : 144 b/s
Count of elements                        : 339
Compression mode                         : Lossless
Stream size                              : 25.2 KiB (0%)
Language                                 : English
Default                                  : No
Forced                                   : No

Text #3
ID                                       : 5
Format                                   : ASS
Codec ID                                 : S_TEXT/ASS
Codec ID/Info                            : Advanced Sub Station Alpha
Duration                                 : 23 min 47 s
Bit rate                                 : 139 b/s
Count of elements                        : 328
Compression mode                         : Lossless
Stream size                              : 24.3 KiB (0%)
Language                                 : French
Default                                  : No
Forced                                   : No

Text #4
ID                                       : 6
Format                                   : ASS
Codec ID                                 : S_TEXT/ASS
Codec ID/Info                            : Advanced Sub Station Alpha
Duration                                 : 23 min 47 s
Bit rate                                 : 119 b/s
Count of elements                        : 307
Compression mode                         : Lossless
Stream size                              : 20.8 KiB (0%)
Language                                 : Spanish
Default                                  : No
Forced                                   : No

Text #5
ID                                       : 7
Format                                   : ASS
Codec ID                                 : S_TEXT/ASS
Codec ID/Info                            : Advanced Sub Station Alpha
Duration                                 : 23 min 47 s
Bit rate                                 : 120 b/s
Count of elements                        : 309
Compression mode                         : Lossless
Stream size                              : 21.0 KiB (0%)
Language                                 : Spanish
Default                                  : No
Forced                                   : No

Text #6
ID                                       : 8
Format                                   : ASS
Codec ID                                 : S_TEXT/ASS
Codec ID/Info                            : Advanced Sub Station Alpha
Duration                                 : 23 min 47 s
Bit rate                                 : 138 b/s
Count of elements                        : 332
Compression mode                         : Lossless
Stream size                              : 24.2 KiB (0%)
Language                                 : Portuguese
Default                                  : No
Forced                                   : No

Text #7
ID                                       : 9
Format                                   : ASS
Codec ID                                 : S_TEXT/ASS
Codec ID/Info                            : Advanced Sub Station Alpha
Duration                                 : 23 min 47 s
Bit rate                                 : 170 b/s
Count of elements                        : 336
Compression mode                         : Lossless
Stream size                              : 29.7 KiB (0%)
Language                                 : Arabic
Default                                  : No
Forced                                   : No

Text #8
ID                                       : 10
Format                                   : ASS
Codec ID                                 : S_TEXT/ASS
Codec ID/Info                            : Advanced Sub Station Alpha
Duration                                 : 23 min 47 s
Bit rate                                 : 214 b/s
Count of elements                        : 324
Compression mode                         : Lossless
Stream size                              : 37.3 KiB (0%)
Language                                 : Russian
Default                                  : No
Forced                                   : No

Text #9
ID                                       : 11
Format                                   : ASS
Codec ID                                 : S_TEXT/ASS
Codec ID/Info                            : Advanced Sub Station Alpha
Duration                                 : 23 min 47 s
Bit rate                                 : 151 b/s
Count of elements                        : 323
Compression mode                         : Lossless
Stream size                              : 26.4 KiB (0%)
Language                                 : German
Default                                  : No
Forced                                   : No

Text #10
ID                                       : 12
Format                                   : ASS
Codec ID                                 : S_TEXT/ASS
Codec ID/Info                            : Advanced Sub Station Alpha
Duration                                 : 23 min 47 s
Bit rate                                 : 147 b/s
Count of elements                        : 364
Compression mode                         : Lossless
Stream size                              : 25.6 KiB (0%)
Language                                 : Italian
Default                                  : No
Forced                                   : No

Other Files in this Torrent
[Hakata Ramen] Kyokou Suiri S01E05.mkv
beta
Anime DDL+NZB mirror
Current Time: 19/10/2021 11:12



About/FAQs

Discord