File Size168.2 MB (176,354,037 bytes)
DownloadClickNUpload | Jheberg | MultiUp
  • BdUpload
  • DownAce
  • Fichier
  • FileCloud
  • Filerio
  • FilesCdn
  • IndiShare
  • Kbagi
  • Turbobit
  • UpToBox
  • Uppit
| Sendspace | SolidFiles | ZippyShare
HashesCRC32: ACDF64EF, MD5: 7AAA85DBB3ED5154D9330CC6EA230FBA, SHA1: D3CC071E4A9C298E84163AD3E10EF1FEB6547746, SHA256: BE99851EC5DE34561CC070D8DBCC83BD3DB5E1887A17530EA04093688104628A, ED2K: 02BA81ECB7FBF9E52D26B7CAC5460EA4
Screenshots
screenshotscreenshotscreenshotscreenshotscreenshot
SubtitlesAll Attachments | HS [eng, ASS], eng [ASS], fre [ASS], spa [ASS], lat [ASS], por [ASS], ara [ASS], rus [ASS], ger [ASS], ita [ASS]
Additional Info
General
Unique ID                                : 238148037921988318426355282678451473126 (0xB329A4CC5913F60FE39D40310F1B0AE6)
Complete name                            : [Hakata Ramen] Kyokou Suiri S01E04.mkv
Format                                   : Matroska
Format version                           : Version 4
File size                                : 168 MiB
Duration                                 : 24 min 0 s
Overall bit rate                         : 980 kb/s
Movie name                               : [Hakata Ramen] Kyokou Suiri S01E04 ~GodZilla
Encoded date                             : UTC 2020-02-08 20:19:33
Writing application                      : mkvmerge v43.0.0 ('The Quartermaster') 64-bit
Writing library                          : libebml v1.3.10 + libmatroska v1.5.2
Attachments                              : OpenSans-Semibold.ttf

Video
ID                                       : 1
Format                                   : HEVC
Format/Info                              : High Efficiency Video Coding
Format profile                           : Main@L4@Main
Codec ID                                 : V_MPEGH/ISO/HEVC
Duration                                 : 24 min 0 s
Bit rate                                 : 877 kb/s
Width                                    : 1 920 pixels
Height                                   : 1 080 pixels
Display aspect ratio                     : 16:9
Frame rate mode                          : Constant
Frame rate                               : 23.976 (24000/1001) FPS
Color space                              : YUV
Chroma subsampling                       : 4:2:0
Bit depth                                : 8 bits
Bits/(Pixel*Frame)                       : 0.018
Stream size                              : 151 MiB (90%)
Title                                    : [Hakata Ramen] HEVC/.x265 (GodZilla)
Language                                 : Japanese
Default                                  : Yes
Forced                                   : No
Color range                              : Limited
Color primaries                          : BT.709
Transfer characteristics                 : BT.709
Matrix coefficients                      : BT.709

Audio
ID                                       : 2
Format                                   : Opus
Codec ID                                 : A_OPUS
Duration                                 : 24 min 0 s
Bit rate                                 : 96.2 kb/s
Channel(s)                               : 2 channels
Channel layout                           : L R
Sampling rate                            : 44.1 kHz
Frame rate                               : 50.000 FPS (882 SPF)
Compression mode                         : Lossy
Stream size                              : 16.5 MiB (10%)
Title                                    : [Hakata Ramen] 2 Channels Stereo (Doc_Ramen)
Language                                 : Japanese
Default                                  : Yes
Forced                                   : No

Text #1
ID                                       : 3
Format                                   : ASS
Codec ID                                 : S_TEXT/ASS
Codec ID/Info                            : Advanced Sub Station Alpha
Duration                                 : 23 min 52 s
Bit rate                                 : 217 b/s
Count of elements                        : 434
Compression mode                         : Lossless
Stream size                              : 38.0 KiB (0%)
Title                                    : HS
Language                                 : English
Default                                  : No
Forced                                   : No

Text #2
ID                                       : 4
Format                                   : ASS
Codec ID                                 : S_TEXT/ASS
Codec ID/Info                            : Advanced Sub Station Alpha
Duration                                 : 23 min 52 s
Bit rate                                 : 217 b/s
Count of elements                        : 434
Compression mode                         : Lossless
Stream size                              : 38.0 KiB (0%)
Language                                 : English
Default                                  : No
Forced                                   : No

Text #3
ID                                       : 5
Format                                   : ASS
Codec ID                                 : S_TEXT/ASS
Codec ID/Info                            : Advanced Sub Station Alpha
Duration                                 : 23 min 51 s
Bit rate                                 : 148 b/s
Count of elements                        : 345
Compression mode                         : Lossless
Stream size                              : 25.9 KiB (0%)
Language                                 : French
Default                                  : No
Forced                                   : No

Text #4
ID                                       : 6
Format                                   : ASS
Codec ID                                 : S_TEXT/ASS
Codec ID/Info                            : Advanced Sub Station Alpha
Duration                                 : 23 min 52 s
Bit rate                                 : 134 b/s
Count of elements                        : 335
Compression mode                         : Lossless
Stream size                              : 23.5 KiB (0%)
Language                                 : Spanish
Default                                  : No
Forced                                   : No

Text #5
ID                                       : 7
Format                                   : ASS
Codec ID                                 : S_TEXT/ASS
Codec ID/Info                            : Advanced Sub Station Alpha
Duration                                 : 23 min 52 s
Bit rate                                 : 135 b/s
Count of elements                        : 338
Compression mode                         : Lossless
Stream size                              : 23.7 KiB (0%)
Language                                 : Latin
Default                                  : No
Forced                                   : No

Text #6
ID                                       : 8
Format                                   : ASS
Codec ID                                 : S_TEXT/ASS
Codec ID/Info                            : Advanced Sub Station Alpha
Duration                                 : 23 min 52 s
Bit rate                                 : 213 b/s
Count of elements                        : 430
Compression mode                         : Lossless
Stream size                              : 37.4 KiB (0%)
Language                                 : Portuguese
Default                                  : No
Forced                                   : No

Text #7
ID                                       : 9
Format                                   : ASS
Codec ID                                 : S_TEXT/ASS
Codec ID/Info                            : Advanced Sub Station Alpha
Duration                                 : 23 min 52 s
Bit rate                                 : 223 b/s
Count of elements                        : 397
Compression mode                         : Lossless
Stream size                              : 39.2 KiB (0%)
Language                                 : Arabic
Default                                  : No
Forced                                   : No

Text #8
ID                                       : 10
Format                                   : ASS
Codec ID                                 : S_TEXT/ASS
Codec ID/Info                            : Advanced Sub Station Alpha
Duration                                 : 23 min 52 s
Bit rate                                 : 298 b/s
Count of elements                        : 420
Compression mode                         : Lossless
Stream size                              : 52.2 KiB (0%)
Language                                 : Russian
Default                                  : No
Forced                                   : No

Text #9
ID                                       : 11
Format                                   : ASS
Codec ID                                 : S_TEXT/ASS
Codec ID/Info                            : Advanced Sub Station Alpha
Duration                                 : 23 min 52 s
Bit rate                                 : 224 b/s
Count of elements                        : 431
Compression mode                         : Lossless
Stream size                              : 39.3 KiB (0%)
Language                                 : German
Default                                  : No
Forced                                   : No

Text #10
ID                                       : 12
Format                                   : ASS
Codec ID                                 : S_TEXT/ASS
Codec ID/Info                            : Advanced Sub Station Alpha
Duration                                 : 23 min 52 s
Bit rate                                 : 192 b/s
Count of elements                        : 438
Compression mode                         : Lossless
Stream size                              : 33.7 KiB (0%)
Language                                 : Italian
Default                                  : No
Forced                                   : No

Other Files in this Torrent
[Hakata Ramen] Kyokou Suiri S01E04.mkv
beta
Anime DDL+NZB mirror
Current Time: 19/10/2021 12:48



About/FAQs

Discord