File Size149.9 MB (157,138,782 bytes)
DownloadClickNUpload | Jheberg | MultiUp
  • BdUpload
  • DownAce
  • Fichier
  • FileCloud
  • Filerio
  • FilesCdn
  • IndiShare
  • Kbagi
  • Turbobit
  • UpToBox
  • Uppit
| Sendspace | SolidFiles | ZippyShare
HashesCRC32: 11778F55, MD5: EE48559EC9716405F4854B770F658B0D, SHA1: 9904799E01D97D27713E13F1B087C939BF2899E9, SHA256: 6C9D2608623A907D6474E916846AA96E389DB41EF63A0EA4956343B28141E7E5, ED2K: 1E542183779ECF918BF2D10A8EE57BC5
Screenshots
screenshotscreenshotscreenshotscreenshotscreenshot
SubtitlesAll Attachments | HS [eng, ASS], eng [ASS], fre [ASS], spa [ASS], lat [ASS], por [ASS], ara [ASS], rus [ASS], ger [ASS], ita [ASS]
Additional Info
General
Unique ID                                : 71462479623509374108736803225008550125 (0x35C32C45D79CBE1BABF4B4FA70EF30ED)
Complete name                            : [Hakata Ramen] Kyokou Suiri S01E03.mkv
Format                                   : Matroska
Format version                           : Version 4
File size                                : 150 MiB
Duration                                 : 24 min 1 s
Overall bit rate                         : 872 kb/s
Movie name                               : [Hakata Ramen] Kyokou Suiri S01E03 ~GodZilla
Encoded date                             : UTC 2020-02-08 20:16:28
Writing application                      : mkvmerge v43.0.0 ('The Quartermaster') 64-bit
Writing library                          : libebml v1.3.10 + libmatroska v1.5.2
Attachments                              : OpenSans-Semibold.ttf

Video
ID                                       : 1
Format                                   : HEVC
Format/Info                              : High Efficiency Video Coding
Format profile                           : Main@L4@Main
Codec ID                                 : V_MPEGH/ISO/HEVC
Duration                                 : 24 min 0 s
Bit rate                                 : 771 kb/s
Width                                    : 1 920 pixels
Height                                   : 1 080 pixels
Display aspect ratio                     : 16:9
Frame rate mode                          : Constant
Frame rate                               : 23.976 (24000/1001) FPS
Color space                              : YUV
Chroma subsampling                       : 4:2:0
Bit depth                                : 8 bits
Bits/(Pixel*Frame)                       : 0.016
Stream size                              : 132 MiB (88%)
Title                                    : [Hakata Ramen] HEVC/.x265 (GodZilla)
Language                                 : Japanese
Default                                  : Yes
Forced                                   : No
Color range                              : Limited
Color primaries                          : BT.709
Transfer characteristics                 : BT.709
Matrix coefficients                      : BT.709

Audio
ID                                       : 2
Format                                   : Opus
Codec ID                                 : A_OPUS
Duration                                 : 24 min 0 s
Bit rate                                 : 96.2 kb/s
Channel(s)                               : 2 channels
Channel layout                           : L R
Sampling rate                            : 44.1 kHz
Frame rate                               : 50.001 FPS (882 SPF)
Compression mode                         : Lossy
Stream size                              : 16.5 MiB (11%)
Title                                    : [Hakata Ramen] 2 Channels Stereo (Doc_Ramen)
Language                                 : Japanese
Default                                  : Yes
Forced                                   : No

Text #1
ID                                       : 3
Format                                   : ASS
Codec ID                                 : S_TEXT/ASS
Codec ID/Info                            : Advanced Sub Station Alpha
Duration                                 : 23 min 58 s
Bit rate                                 : 161 b/s
Count of elements                        : 374
Compression mode                         : Lossless
Stream size                              : 28.3 KiB (0%)
Title                                    : HS
Language                                 : English
Default                                  : No
Forced                                   : No

Text #2
ID                                       : 4
Format                                   : ASS
Codec ID                                 : S_TEXT/ASS
Codec ID/Info                            : Advanced Sub Station Alpha
Duration                                 : 23 min 58 s
Bit rate                                 : 161 b/s
Count of elements                        : 374
Compression mode                         : Lossless
Stream size                              : 28.3 KiB (0%)
Language                                 : English
Default                                  : No
Forced                                   : No

Text #3
ID                                       : 5
Format                                   : ASS
Codec ID                                 : S_TEXT/ASS
Codec ID/Info                            : Advanced Sub Station Alpha
Duration                                 : 23 min 58 s
Bit rate                                 : 149 b/s
Count of elements                        : 348
Compression mode                         : Lossless
Stream size                              : 26.2 KiB (0%)
Language                                 : French
Default                                  : No
Forced                                   : No

Text #4
ID                                       : 6
Format                                   : ASS
Codec ID                                 : S_TEXT/ASS
Codec ID/Info                            : Advanced Sub Station Alpha
Duration                                 : 23 min 58 s
Bit rate                                 : 123 b/s
Count of elements                        : 318
Compression mode                         : Lossless
Stream size                              : 21.7 KiB (0%)
Language                                 : Spanish
Default                                  : No
Forced                                   : No

Text #5
ID                                       : 7
Format                                   : ASS
Codec ID                                 : S_TEXT/ASS
Codec ID/Info                            : Advanced Sub Station Alpha
Duration                                 : 23 min 58 s
Bit rate                                 : 125 b/s
Count of elements                        : 323
Compression mode                         : Lossless
Stream size                              : 22.0 KiB (0%)
Language                                 : Latin
Default                                  : No
Forced                                   : No

Text #6
ID                                       : 8
Format                                   : ASS
Codec ID                                 : S_TEXT/ASS
Codec ID/Info                            : Advanced Sub Station Alpha
Duration                                 : 23 min 58 s
Bit rate                                 : 156 b/s
Count of elements                        : 366
Compression mode                         : Lossless
Stream size                              : 27.5 KiB (0%)
Language                                 : Portuguese
Default                                  : No
Forced                                   : No

Text #7
ID                                       : 9
Format                                   : ASS
Codec ID                                 : S_TEXT/ASS
Codec ID/Info                            : Advanced Sub Station Alpha
Duration                                 : 24 min 0 s
Bit rate                                 : 186 b/s
Count of elements                        : 370
Compression mode                         : Lossless
Stream size                              : 32.8 KiB (0%)
Language                                 : Arabic
Default                                  : No
Forced                                   : No

Text #8
ID                                       : 10
Format                                   : ASS
Codec ID                                 : S_TEXT/ASS
Codec ID/Info                            : Advanced Sub Station Alpha
Duration                                 : 23 min 58 s
Bit rate                                 : 228 b/s
Count of elements                        : 345
Compression mode                         : Lossless
Stream size                              : 40.1 KiB (0%)
Language                                 : Russian
Default                                  : No
Forced                                   : No

Text #9
ID                                       : 11
Format                                   : ASS
Codec ID                                 : S_TEXT/ASS
Codec ID/Info                            : Advanced Sub Station Alpha
Duration                                 : 23 min 58 s
Bit rate                                 : 158 b/s
Count of elements                        : 370
Compression mode                         : Lossless
Stream size                              : 27.9 KiB (0%)
Language                                 : German
Default                                  : No
Forced                                   : No

Text #10
ID                                       : 12
Format                                   : ASS
Codec ID                                 : S_TEXT/ASS
Codec ID/Info                            : Advanced Sub Station Alpha
Duration                                 : 23 min 58 s
Bit rate                                 : 160 b/s
Count of elements                        : 397
Compression mode                         : Lossless
Stream size                              : 28.1 KiB (0%)
Language                                 : Italian
Default                                  : No
Forced                                   : No

Other Files in this Torrent
[Hakata Ramen] Kyokou Suiri S01E03.mkv
beta
Anime DDL+NZB mirror
Current Time: 18/09/2021 05:29



About/FAQs