File Size123.6 MB (129,613,945 bytes)
DownloadClickNUpload | Jheberg | MultiUp
  • BdUpload
  • DownAce
  • Fichier
  • FileCloud
  • Filerio
  • FilesCdn
  • IndiShare
  • Kbagi
  • Turbobit
  • UpToBox
  • Uppit
| Sendspace | SolidFiles | ZippyShare
HashesCRC32: E5A0CFF4, MD5: 94904CE8073B54D2E49C55A693816630, SHA1: FBAA3835E578DF0A79D09ECD1F7C77A5C865BBC6, SHA256: BBE616971A4EB0E547F2736C96199F6986220CB69F6449890799172F5AB90D0A, ED2K: 639BCF64ABEBBBD171A868FDB7454B3B
Screenshots
screenshotscreenshotscreenshotscreenshotscreenshot
SubtitlesAll Attachments | HS [eng, ASS], eng [ASS], fre [ASS], spa [ASS], lat [ASS], por [ASS], ara [ASS], rus [ASS], ger [ASS], ita [ASS]
Additional Info
General
Unique ID                                : 241717741645173451157882077470526286971 (0xB5D924C7B70D1014749FEAB5A84C2C7B)
Complete name                            : [Hakata Ramen] Kyokou Suiri S01E01.mkv
Format                                   : Matroska
Format version                           : Version 4
File size                                : 124 MiB
Duration                                 : 24 min 0 s
Overall bit rate                         : 720 kb/s
Movie name                               : [Hakata Ramen] Kyokou Suiri S01E01 ~GodZilla
Encoded date                             : UTC 2020-02-08 20:05:31
Writing application                      : mkvmerge v43.0.0 ('The Quartermaster') 64-bit
Writing library                          : libebml v1.3.10 + libmatroska v1.5.2
Attachments                              : OpenSans-Semibold.ttf

Video
ID                                       : 1
Format                                   : HEVC
Format/Info                              : High Efficiency Video Coding
Format profile                           : Main@L4@Main
Codec ID                                 : V_MPEGH/ISO/HEVC
Duration                                 : 24 min 0 s
Bit rate                                 : 618 kb/s
Width                                    : 1 920 pixels
Height                                   : 1 080 pixels
Display aspect ratio                     : 16:9
Frame rate mode                          : Constant
Frame rate                               : 23.976 (24000/1001) FPS
Color space                              : YUV
Chroma subsampling                       : 4:2:0
Bit depth                                : 8 bits
Bits/(Pixel*Frame)                       : 0.012
Stream size                              : 106 MiB (86%)
Title                                    : [Hakata Ramen] HEVC/.x265 (GodZilla)
Language                                 : Japanese
Default                                  : Yes
Forced                                   : No
Color range                              : Limited
Color primaries                          : BT.709
Transfer characteristics                 : BT.709
Matrix coefficients                      : BT.709

Audio
ID                                       : 2
Format                                   : Opus
Codec ID                                 : A_OPUS
Duration                                 : 24 min 0 s
Bit rate                                 : 96.1 kb/s
Channel(s)                               : 2 channels
Channel layout                           : L R
Sampling rate                            : 44.1 kHz
Frame rate                               : 50.000 FPS (882 SPF)
Compression mode                         : Lossy
Stream size                              : 16.5 MiB (13%)
Title                                    : [Hakata Ramen] 2 Channels Stereo (Doc_Ramen)
Language                                 : Japanese
Default                                  : Yes
Forced                                   : No

Text #1
ID                                       : 3
Format                                   : ASS
Codec ID                                 : S_TEXT/ASS
Codec ID/Info                            : Advanced Sub Station Alpha
Duration                                 : 23 min 47 s
Bit rate                                 : 145 b/s
Count of elements                        : 331
Compression mode                         : Lossless
Stream size                              : 25.4 KiB (0%)
Title                                    : HS
Language                                 : English
Default                                  : No
Forced                                   : No

Text #2
ID                                       : 4
Format                                   : ASS
Codec ID                                 : S_TEXT/ASS
Codec ID/Info                            : Advanced Sub Station Alpha
Duration                                 : 23 min 47 s
Bit rate                                 : 145 b/s
Count of elements                        : 331
Compression mode                         : Lossless
Stream size                              : 25.4 KiB (0%)
Language                                 : English
Default                                  : No
Forced                                   : No

Text #3
ID                                       : 5
Format                                   : ASS
Codec ID                                 : S_TEXT/ASS
Codec ID/Info                            : Advanced Sub Station Alpha
Duration                                 : 23 min 48 s
Bit rate                                 : 137 b/s
Count of elements                        : 320
Compression mode                         : Lossless
Stream size                              : 23.9 KiB (0%)
Language                                 : French
Default                                  : No
Forced                                   : No

Text #4
ID                                       : 6
Format                                   : ASS
Codec ID                                 : S_TEXT/ASS
Codec ID/Info                            : Advanced Sub Station Alpha
Duration                                 : 23 min 47 s
Bit rate                                 : 122 b/s
Count of elements                        : 319
Compression mode                         : Lossless
Stream size                              : 21.3 KiB (0%)
Language                                 : Spanish
Default                                  : No
Forced                                   : No

Text #5
ID                                       : 7
Format                                   : ASS
Codec ID                                 : S_TEXT/ASS
Codec ID/Info                            : Advanced Sub Station Alpha
Duration                                 : 23 min 47 s
Bit rate                                 : 123 b/s
Count of elements                        : 319
Compression mode                         : Lossless
Stream size                              : 21.5 KiB (0%)
Language                                 : Latin
Default                                  : No
Forced                                   : No

Text #6
ID                                       : 8
Format                                   : ASS
Codec ID                                 : S_TEXT/ASS
Codec ID/Info                            : Advanced Sub Station Alpha
Duration                                 : 23 min 47 s
Bit rate                                 : 137 b/s
Count of elements                        : 330
Compression mode                         : Lossless
Stream size                              : 24.0 KiB (0%)
Language                                 : Portuguese
Default                                  : No
Forced                                   : No

Text #7
ID                                       : 9
Format                                   : ASS
Codec ID                                 : S_TEXT/ASS
Codec ID/Info                            : Advanced Sub Station Alpha
Duration                                 : 23 min 47 s
Bit rate                                 : 172 b/s
Count of elements                        : 331
Compression mode                         : Lossless
Stream size                              : 30.1 KiB (0%)
Language                                 : Arabic
Default                                  : No
Forced                                   : No

Text #8
ID                                       : 10
Format                                   : ASS
Codec ID                                 : S_TEXT/ASS
Codec ID/Info                            : Advanced Sub Station Alpha
Duration                                 : 23 min 47 s
Bit rate                                 : 221 b/s
Count of elements                        : 335
Compression mode                         : Lossless
Stream size                              : 38.6 KiB (0%)
Language                                 : Russian
Default                                  : No
Forced                                   : No

Text #9
ID                                       : 11
Format                                   : ASS
Codec ID                                 : S_TEXT/ASS
Codec ID/Info                            : Advanced Sub Station Alpha
Duration                                 : 23 min 47 s
Bit rate                                 : 143 b/s
Count of elements                        : 329
Compression mode                         : Lossless
Stream size                              : 25.0 KiB (0%)
Language                                 : German
Default                                  : No
Forced                                   : No

Text #10
ID                                       : 12
Format                                   : ASS
Codec ID                                 : S_TEXT/ASS
Codec ID/Info                            : Advanced Sub Station Alpha
Duration                                 : 23 min 48 s
Bit rate                                 : 146 b/s
Count of elements                        : 365
Compression mode                         : Lossless
Stream size                              : 25.5 KiB (0%)
Language                                 : Italian
Default                                  : No
Forced                                   : No

Other Files in this Torrent
[Hakata Ramen] Kyokou Suiri S01E01.mkv
beta
Anime DDL+NZB mirror
Current Time: 18/09/2021 05:41



About/FAQs