Golden Boy 6 480p.x264.Tri-Audio.Ita.Eng.Jap [Rady].mkv


File Size414.1 MB (434,217,705 bytes)
DownloadAnonFiles | ClickNUpload | DropAPK | Free | MultiUp
  • BdUpload
  • DownAce
  • Fichier
  • FileCloud
  • Filerio
  • FilesCdn
  • IndiShare
  • Kbagi
  • Turbobit
  • UpToBox
  • Uppit
| SolidFiles | ZippyShare
HashesCRC32: 97025567, MD5: 6702665BC78071A8C5733E48A4423B87, SHA1: 2669758CC8B35992FAF9B9155F62A87291788252, SHA256: 370AD2D9BB3AFFAE8524BD30BA281E57A5424D5121851FD5D52504B04A498E60, ED2K: 0C30883EF6CE79F4EABB8A4E24C6674B
Screenshots
screenshotscreenshotscreenshotscreenshotscreenshot
SubtitlesAll Attachments | eng [ASS], Cartelli [ASS] [ita, ASS], Dialoghi [ASS] [ita, ASS], Cartelli [SRT] [ita, SRT], Dialoghi [SRT] [ita, SRT], Inglese [SRT] [eng, SRT]
Additional Info
General
Unique ID                                : 159352996799893065875646934430768686082 (0x77E24554E248347F7123A9CE495BE402)
Complete name                            : Golden Boy 6 480p.x264.Tri-Audio.Ita.Eng.Jap  [Rady].mkv
Format                                   : Matroska
Format version                           : Version 4
File size                                : 414 MiB
Duration                                 : 29 min 6 s
Overall bit rate                         : 1 988 kb/s
Movie name                               : Golden Boy 2
Encoded date                             : UTC 2020-08-20 22:02:48
Writing application                      : mkvmerge v48.0.0 ('Fortress Around Your Heart') 64-bit
Writing library                          : libebml v1.4.0 + libmatroska v1.6.0

Video
ID                                       : 2
Format                                   : AVC
Format/Info                              : Advanced Video Codec
Format profile                           : High@L3.1
Format settings                          : CABAC / 4 Ref Frames
Format settings, CABAC                   : Yes
Format settings, ReFrames                : 4 frames
Codec ID                                 : V_MPEG4/ISO/AVC
Duration                                 : 29 min 6 s
Bit rate                                 : 1 535 kb/s
Width                                    : 1 024 pixels
Height                                   : 768 pixels
Display aspect ratio                     : 4:3
Frame rate mode                          : Variable
Frame rate                               : 28.468 FPS
Original frame rate                      : 23.976 (24000/1001) FPS
Color space                              : YUV
Chroma subsampling                       : 4:2:0
Bit depth                                : 8 bits
Scan type                                : Progressive
Bits/(Pixel*Frame)                       : 0.069
Stream size                              : 320 MiB (77%)
Writing library                          : x264 core 148 r2638 7599210
Encoding settings                        : cabac=1 / ref=3 / deblock=1:1:2 / analyse=0x3:0x113 / me=hex / subme=7 / psy=1 / psy_rd=1.00:0.00 / mixed_ref=1 / me_range=16 / chroma_me=1 / trellis=1 / 8x8dct=1 / cqm=0 / deadzone=21,11 / fast_pskip=1 / chroma_qp_offset=-2 / threads=12 / lookahead_threads=2 / sliced_threads=0 / nr=0 / decimate=1 / interlaced=0 / bluray_compat=0 / constrained_intra=0 / bframes=3 / b_pyramid=2 / b_adapt=1 / b_bias=0 / direct=1 / weightb=1 / open_gop=0 / weightp=2 / keyint=240 / keyint_min=23 / scenecut=40 / intra_refresh=0 / rc_lookahead=40 / rc=crf / mbtree=1 / crf=22.0 / qcomp=0.60 / qpmin=0 / qpmax=69 / qpstep=4 / ip_ratio=1.40 / aq=1:1.00
Language                                 : Japanese
Default                                  : Yes
Forced                                   : No

Audio #1
ID                                       : 3
Format                                   : AC-3
Format/Info                              : Audio Coding 3
Commercial name                          : Dolby Digital
Codec ID                                 : A_AC3
Duration                                 : 29 min 0 s
Bit rate mode                            : Constant
Bit rate                                 : 192 kb/s
Channel(s)                               : 2 channels
Channel layout                           : L R
Sampling rate                            : 48.0 kHz
Frame rate                               : 31.250 FPS (1536 SPF)
Bit depth                                : 16 bits
Compression mode                         : Lossy
Stream size                              : 39.8 MiB (10%)
Title                                    : Italiano
Language                                 : Italian
Service kind                             : Complete Main
Default                                  : Yes
Forced                                   : Yes

Audio #2
ID                                       : 4
Format                                   : AAC LC
Format/Info                              : Advanced Audio Codec Low Complexity
Codec ID                                 : A_AAC-2
Duration                                 : 29 min 6 s
Bit rate                                 : 128 kb/s
Channel(s)                               : 2 channels
Channel layout                           : L R
Sampling rate                            : 48.0 kHz
Frame rate                               : 46.875 FPS (1024 SPF)
Compression mode                         : Lossy
Stream size                              : 26.6 MiB (6%)
Title                                    : Giapponese
Language                                 : Japanese
Default                                  : No
Forced                                   : No

Audio #3
ID                                       : 5
Format                                   : AAC LC
Format/Info                              : Advanced Audio Codec Low Complexity
Codec ID                                 : A_AAC-2
Duration                                 : 29 min 6 s
Bit rate                                 : 128 kb/s
Channel(s)                               : 2 channels
Channel layout                           : L R
Sampling rate                            : 48.0 kHz
Frame rate                               : 46.875 FPS (1024 SPF)
Compression mode                         : Lossy
Stream size                              : 26.7 MiB (6%)
Title                                    : Inglese
Language                                 : English
Default                                  : No
Forced                                   : No

Text #1
ID                                       : 1
Format                                   : ASS
Codec ID                                 : S_TEXT/ASS
Codec ID/Info                            : Advanced Sub Station Alpha
Duration                                 : 24 min 59 s
Bit rate                                 : 133 b/s
Count of elements                        : 402
Compression mode                         : Lossless
Stream size                              : 24.4 KiB (0%)
Language                                 : English
Default                                  : No
Forced                                   : No

Text #2
ID                                       : 6
Format                                   : ASS
Codec ID                                 : S_TEXT/ASS
Codec ID/Info                            : Advanced Sub Station Alpha
Duration                                 : 19 min 9 s
Bit rate                                 : 6 b/s
Count of elements                        : 14
Compression mode                         : Lossless
Stream size                              : 873 Bytes (0%)
Title                                    : Cartelli [ASS]
Language                                 : Italian
Default                                  : No
Forced                                   : No

Text #3
ID                                       : 7
Format                                   : ASS
Codec ID                                 : S_TEXT/ASS
Codec ID/Info                            : Advanced Sub Station Alpha
Duration                                 : 24 min 59 s
Bit rate                                 : 143 b/s
Count of elements                        : 410
Compression mode                         : Lossless
Stream size                              : 26.3 KiB (0%)
Title                                    : Dialoghi [ASS]
Language                                 : Italian
Default                                  : No
Forced                                   : No

Text #4
ID                                       : 8
Format                                   : UTF-8
Codec ID                                 : S_TEXT/UTF8
Codec ID/Info                            : UTF-8 Plain Text
Duration                                 : 19 min 9 s
Bit rate                                 : 2 b/s
Count of elements                        : 8
Stream size                              : 362 Bytes (0%)
Title                                    : Cartelli [SRT]
Language                                 : Italian
Default                                  : No
Forced                                   : No

Text #5
ID                                       : 9
Format                                   : UTF-8
Codec ID                                 : S_TEXT/UTF8
Codec ID/Info                            : UTF-8 Plain Text
Duration                                 : 24 min 59 s
Bit rate                                 : 91 b/s
Count of elements                        : 405
Stream size                              : 16.7 KiB (0%)
Title                                    : Dialoghi [SRT]
Language                                 : Italian
Default                                  : No
Forced                                   : No

Text #6
ID                                       : 10
Format                                   : UTF-8
Codec ID                                 : S_TEXT/UTF8
Codec ID/Info                            : UTF-8 Plain Text
Duration                                 : 28 min 34 s
Bit rate                                 : 74 b/s
Count of elements                        : 454
Stream size                              : 15.5 KiB (0%)
Title                                    : Inglese [SRT]
Language                                 : English
Default                                  : No
Forced                                   : No

Menu
00:00:00.000                             : it:Intro
00:01:49.900                             : it:Opening
00:03:37.700                             : it:Parte 1
00:11:35.570                             : it:Parte 2
00:25:26.800                             : it:Ending

Other Files in this Torrent
Golden Boy 6 480p.x264.Tri-Audio.Ita.Eng.Jap [Rady].mkv
beta
Anime DDL+NZB mirror
Current Time: 19/01/2021 20:56



About/FAQs