Golden Boy 2 480p.x264.Tri-Audio.Ita.Eng.Jap [Rady].mkv


File Size375.8 MB (394,025,309 bytes)
DownloadAnonFiles | ClickNUpload | DropAPK | Free | MultiUp
  • BdUpload
  • DownAce
  • Fichier
  • FileCloud
  • Filerio
  • FilesCdn
  • IndiShare
  • Kbagi
  • Turbobit
  • UpToBox
  • Uppit
| SolidFiles | ZippyShare
HashesCRC32: 2CE494CA, MD5: 8B676F2E21D03858FB47148D52A5E2AC, SHA1: 3FD8CB650ED527DDE93613F07A7596BF5E7EC216, SHA256: A45654F293409AAE2E0ED3D3AFE96D9E96D66897C9DB5E3FAF2E79D455D15B98, ED2K: 9F32993180DF832A2AA871EB6CFADAE0
Screenshots
screenshotscreenshotscreenshotscreenshotscreenshot
SubtitlesAll Attachments | Cartelli [ASS] [ita, ASS], Dialoghi [ASS] [ita, ASS], Inglese [ASS] [eng, ASS], Cartelli [SRT] [ita, SRT], Dialoghi [SRT] [ita, SRT], Inglese [SRT] [eng, SRT]
Additional Info
General
Unique ID                                : 45407108483642230499129809885612043041 (0x2229174B3AE0F5B81E0A5DBCFDE96B21)
Complete name                            : Golden Boy 2 480p.x264.Tri-Audio.Ita.Eng.Jap  [Rady].mkv
Format                                   : Matroska
Format version                           : Version 4
File size                                : 376 MiB
Duration                                 : 29 min 16 s
Overall bit rate                         : 1 795 kb/s
Movie name                               : Golden Boy 1
Encoded date                             : UTC 2020-08-17 22:20:45
Writing application                      : mkvmerge v48.0.0 ('Fortress Around Your Heart') 64-bit
Writing library                          : libebml v1.4.0 + libmatroska v1.6.0

Video
ID                                       : 1
Format                                   : AVC
Format/Info                              : Advanced Video Codec
Format profile                           : High@L3.1
Format settings                          : CABAC / 4 Ref Frames
Format settings, CABAC                   : Yes
Format settings, ReFrames                : 4 frames
Codec ID                                 : V_MPEG4/ISO/AVC
Duration                                 : 29 min 16 s
Bit rate                                 : 1 353 kb/s
Width                                    : 1 024 pixels
Height                                   : 768 pixels
Display aspect ratio                     : 4:3
Frame rate mode                          : Variable
Frame rate                               : 28.157 FPS
Original frame rate                      : 23.976 (24000/1001) FPS
Color space                              : YUV
Chroma subsampling                       : 4:2:0
Bit depth                                : 8 bits
Scan type                                : Progressive
Bits/(Pixel*Frame)                       : 0.061
Stream size                              : 283 MiB (75%)
Writing library                          : x264 core 148 r2638 7599210
Encoding settings                        : cabac=1 / ref=3 / deblock=1:1:2 / analyse=0x3:0x113 / me=hex / subme=7 / psy=1 / psy_rd=1.00:0.00 / mixed_ref=1 / me_range=16 / chroma_me=1 / trellis=1 / 8x8dct=1 / cqm=0 / deadzone=21,11 / fast_pskip=1 / chroma_qp_offset=-2 / threads=12 / lookahead_threads=2 / sliced_threads=0 / nr=0 / decimate=1 / interlaced=0 / bluray_compat=0 / constrained_intra=0 / bframes=3 / b_pyramid=2 / b_adapt=1 / b_bias=0 / direct=1 / weightb=1 / open_gop=0 / weightp=2 / keyint=240 / keyint_min=23 / scenecut=40 / intra_refresh=0 / rc_lookahead=40 / rc=crf / mbtree=1 / crf=22.0 / qcomp=0.60 / qpmin=0 / qpmax=69 / qpstep=4 / ip_ratio=1.40 / aq=1:1.00
Language                                 : Japanese
Default                                  : Yes
Forced                                   : No

Audio #1
ID                                       : 2
Format                                   : AC-3
Format/Info                              : Audio Coding 3
Commercial name                          : Dolby Digital
Codec ID                                 : A_AC3
Duration                                 : 28 min 26 s
Bit rate mode                            : Constant
Bit rate                                 : 192 kb/s
Channel(s)                               : 2 channels
Channel layout                           : L R
Sampling rate                            : 48.0 kHz
Frame rate                               : 31.250 FPS (1536 SPF)
Bit depth                                : 16 bits
Compression mode                         : Lossy
Stream size                              : 39.1 MiB (10%)
Title                                    : Italiano
Language                                 : Italian
Service kind                             : Complete Main
Default                                  : Yes
Forced                                   : No

Audio #2
ID                                       : 3
Format                                   : AAC LC
Format/Info                              : Advanced Audio Codec Low Complexity
Codec ID                                 : A_AAC-2
Duration                                 : 28 min 26 s
Bit rate                                 : 128 kb/s
Channel(s)                               : 2 channels
Channel layout                           : L R
Sampling rate                            : 48.0 kHz
Frame rate                               : 46.875 FPS (1024 SPF)
Compression mode                         : Lossy
Stream size                              : 26.0 MiB (7%)
Title                                    : Giapponese
Language                                 : Japanese
Default                                  : No
Forced                                   : No

Audio #3
ID                                       : 4
Format                                   : AAC LC
Format/Info                              : Advanced Audio Codec Low Complexity
Codec ID                                 : A_AAC-2
Duration                                 : 28 min 26 s
Bit rate                                 : 128 kb/s
Channel(s)                               : 2 channels
Channel layout                           : L R
Sampling rate                            : 48.0 kHz
Frame rate                               : 46.875 FPS (1024 SPF)
Compression mode                         : Lossy
Stream size                              : 26.0 MiB (7%)
Title                                    : Inglese
Language                                 : English
Default                                  : No
Forced                                   : No

Text #1
ID                                       : 5
Format                                   : ASS
Codec ID                                 : S_TEXT/ASS
Codec ID/Info                            : Advanced Sub Station Alpha
Duration                                 : 22 min 26 s
Bit rate                                 : 8 b/s
Count of elements                        : 24
Compression mode                         : Lossless
Stream size                              : 1.42 KiB (0%)
Title                                    : Cartelli [ASS]
Language                                 : Italian
Default                                  : Yes
Forced                                   : No

Text #2
ID                                       : 6
Format                                   : ASS
Codec ID                                 : S_TEXT/ASS
Codec ID/Info                            : Advanced Sub Station Alpha
Duration                                 : 24 min 14 s
Bit rate                                 : 123 b/s
Count of elements                        : 358
Compression mode                         : Lossless
Stream size                              : 21.9 KiB (0%)
Title                                    : Dialoghi [ASS]
Language                                 : Italian
Default                                  : No
Forced                                   : No

Text #3
ID                                       : 7
Format                                   : ASS
Codec ID                                 : S_TEXT/ASS
Codec ID/Info                            : Advanced Sub Station Alpha
Duration                                 : 27 min 27 s
Bit rate                                 : 108 b/s
Count of elements                        : 401
Compression mode                         : Lossless
Stream size                              : 21.8 KiB (0%)
Title                                    : Inglese [ASS]
Language                                 : English
Default                                  : No
Forced                                   : No

Text #4
ID                                       : 8
Format                                   : UTF-8
Codec ID                                 : S_TEXT/UTF8
Codec ID/Info                            : UTF-8 Plain Text
Duration                                 : 22 min 26 s
Bit rate                                 : 3 b/s
Count of elements                        : 10
Stream size                              : 625 Bytes (0%)
Title                                    : Cartelli [SRT]
Language                                 : Italian
Default                                  : No
Forced                                   : No

Text #5
ID                                       : 9
Format                                   : UTF-8
Codec ID                                 : S_TEXT/UTF8
Codec ID/Info                            : UTF-8 Plain Text
Duration                                 : 24 min 15 s
Bit rate                                 : 82 b/s
Count of elements                        : 347
Stream size                              : 14.7 KiB (0%)
Title                                    : Dialoghi [SRT]
Language                                 : Italian
Default                                  : No
Forced                                   : No

Text #6
ID                                       : 10
Format                                   : UTF-8
Codec ID                                 : S_TEXT/UTF8
Codec ID/Info                            : UTF-8 Plain Text
Duration                                 : 27 min 27 s
Bit rate                                 : 65 b/s
Count of elements                        : 390
Stream size                              : 13.2 KiB (0%)
Title                                    : Inglese [SRT]
Language                                 : English
Default                                  : No
Forced                                   : No

Menu
00:00:00.000                             : it:Intro
00:00:44.450                             : it:Opening
00:02:31.500                             : it:Parte 1
00:13:10.620                             : it:Parte 2
00:24:53.900                             : it:Ending

Other Files in this Torrent
Golden Boy 2 480p.x264.Tri-Audio.Ita.Eng.Jap [Rady].mkv
beta
Anime DDL+NZB mirror
Current Time: 19/01/2021 21:24



About/FAQs