Golden Boy 3 480p.x264.Tri-Audio.Ita.Eng.Jap [Rady].mkv


File Size375.4 MB (393,682,066 bytes)
DownloadAnonFiles | ClickNUpload | DropAPK | Free | MultiUp
  • BdUpload
  • DownAce
  • Fichier
  • FileCloud
  • Filerio
  • FilesCdn
  • IndiShare
  • Kbagi
  • Turbobit
  • UpToBox
  • Uppit
| SolidFiles | ZippyShare
HashesCRC32: C2AC390A, MD5: 4BB7334B04E3F1A636926C6F7B8D38AF, SHA1: D64B52BC032126667C803033EEEC71AEAB1531AA, SHA256: BBD44E9887C9D7F109A2D9FD176EB0CA0AD77CAEB419EB1BA14E83E34E457484, ED2K: EF09B2E73F4272D10A35BC6C58C19C7C
Screenshots
screenshotscreenshotscreenshotscreenshotscreenshot
SubtitlesAll Attachments | Cartelli [ASS] [ita, ASS], Dialoghi [ASS] [ita, ASS], Cartelli [SRT] [ita, SRT], Dialoghi [SRT] [ita, SRT], Inglese [SRT] [eng, SRT]
Additional Info
General
Unique ID                                : 263414869239514897890598196757279630864 (0xC62BDBC326BD9ED7EE5EB56E21B96610)
Complete name                            : Golden Boy 3 480p.x264.Tri-Audio.Ita.Eng.Jap  [Rady].mkv
Format                                   : Matroska
Format version                           : Version 4
File size                                : 375 MiB
Duration                                 : 28 min 56 s
Overall bit rate                         : 1 814 kb/s
Movie name                               : Golden Boy 1
Encoded date                             : UTC 2020-08-17 22:23:57
Writing application                      : mkvmerge v48.0.0 ('Fortress Around Your Heart') 64-bit
Writing library                          : libebml v1.4.0 + libmatroska v1.6.0

Video
ID                                       : 1
Format                                   : AVC
Format/Info                              : Advanced Video Codec
Format profile                           : High@L3.1
Format settings                          : CABAC / 4 Ref Frames
Format settings, CABAC                   : Yes
Format settings, ReFrames                : 4 frames
Codec ID                                 : V_MPEG4/ISO/AVC
Duration                                 : 28 min 55 s
Bit rate                                 : 1 360 kb/s
Width                                    : 1 024 pixels
Height                                   : 768 pixels
Display aspect ratio                     : 4:3
Frame rate mode                          : Variable
Frame rate                               : 27.269 FPS
Original frame rate                      : 23.976 (24000/1001) FPS
Color space                              : YUV
Chroma subsampling                       : 4:2:0
Bit depth                                : 8 bits
Scan type                                : Progressive
Bits/(Pixel*Frame)                       : 0.063
Stream size                              : 281 MiB (75%)
Writing library                          : x264 core 148 r2638 7599210
Encoding settings                        : cabac=1 / ref=3 / deblock=1:1:2 / analyse=0x3:0x113 / me=hex / subme=7 / psy=1 / psy_rd=1.00:0.00 / mixed_ref=1 / me_range=16 / chroma_me=1 / trellis=1 / 8x8dct=1 / cqm=0 / deadzone=21,11 / fast_pskip=1 / chroma_qp_offset=-2 / threads=12 / lookahead_threads=2 / sliced_threads=0 / nr=0 / decimate=1 / interlaced=0 / bluray_compat=0 / constrained_intra=0 / bframes=3 / b_pyramid=2 / b_adapt=1 / b_bias=0 / direct=1 / weightb=1 / open_gop=0 / weightp=2 / keyint=240 / keyint_min=23 / scenecut=40 / intra_refresh=0 / rc_lookahead=40 / rc=crf / mbtree=1 / crf=22.0 / qcomp=0.60 / qpmin=0 / qpmax=69 / qpstep=4 / ip_ratio=1.40 / aq=1:1.00
Language                                 : Japanese
Default                                  : Yes
Forced                                   : No

Audio #1
ID                                       : 2
Format                                   : AC-3
Format/Info                              : Audio Coding 3
Commercial name                          : Dolby Digital
Codec ID                                 : A_AC3
Duration                                 : 28 min 55 s
Bit rate mode                            : Constant
Bit rate                                 : 192 kb/s
Channel(s)                               : 2 channels
Channel layout                           : L R
Sampling rate                            : 48.0 kHz
Frame rate                               : 31.250 FPS (1536 SPF)
Bit depth                                : 16 bits
Compression mode                         : Lossy
Stream size                              : 39.7 MiB (11%)
Title                                    : Italiano
Language                                 : Italian
Service kind                             : Complete Main
Default                                  : Yes
Forced                                   : No

Audio #2
ID                                       : 3
Format                                   : AAC LC
Format/Info                              : Advanced Audio Codec Low Complexity
Codec ID                                 : A_AAC-2
Duration                                 : 28 min 56 s
Bit rate                                 : 128 kb/s
Channel(s)                               : 2 channels
Channel layout                           : L R
Sampling rate                            : 48.0 kHz
Frame rate                               : 46.875 FPS (1024 SPF)
Compression mode                         : Lossy
Stream size                              : 26.5 MiB (7%)
Title                                    : Giapponese
Language                                 : Japanese
Default                                  : No
Forced                                   : No

Audio #3
ID                                       : 4
Format                                   : AAC LC
Format/Info                              : Advanced Audio Codec Low Complexity
Codec ID                                 : A_AAC-2
Duration                                 : 28 min 56 s
Bit rate                                 : 128 kb/s
Channel(s)                               : 2 channels
Channel layout                           : L R
Sampling rate                            : 48.0 kHz
Frame rate                               : 46.875 FPS (1024 SPF)
Compression mode                         : Lossy
Stream size                              : 26.5 MiB (7%)
Title                                    : Inglese
Language                                 : English
Default                                  : No
Forced                                   : No

Text #1
ID                                       : 5
Format                                   : ASS
Codec ID                                 : S_TEXT/ASS
Codec ID/Info                            : Advanced Sub Station Alpha
Duration                                 : 28 min 42 s
Bit rate                                 : 8 b/s
Count of elements                        : 27
Compression mode                         : Lossless
Stream size                              : 1.78 KiB (0%)
Title                                    : Cartelli [ASS]
Language                                 : Italian
Default                                  : Yes
Forced                                   : No

Text #2
ID                                       : 6
Format                                   : ASS
Codec ID                                 : S_TEXT/ASS
Codec ID/Info                            : Advanced Sub Station Alpha
Duration                                 : 28 min 42 s
Bit rate                                 : 103 b/s
Count of elements                        : 372
Compression mode                         : Lossless
Stream size                              : 21.7 KiB (0%)
Title                                    : Dialoghi [ASS]
Language                                 : Italian
Default                                  : No
Forced                                   : No

Text #3
ID                                       : 7
Format                                   : UTF-8
Codec ID                                 : S_TEXT/UTF8
Codec ID/Info                            : UTF-8 Plain Text
Duration                                 : 28 min 42 s
Bit rate                                 : 6 b/s
Count of elements                        : 23
Stream size                              : 1.26 KiB (0%)
Title                                    : Cartelli [SRT]
Language                                 : Italian
Default                                  : No
Forced                                   : No

Text #4
ID                                       : 8
Format                                   : UTF-8
Codec ID                                 : S_TEXT/UTF8
Codec ID/Info                            : UTF-8 Plain Text
Duration                                 : 28 min 42 s
Bit rate                                 : 66 b/s
Count of elements                        : 376
Stream size                              : 14.0 KiB (0%)
Title                                    : Dialoghi [SRT]
Language                                 : Italian
Default                                  : No
Forced                                   : No

Text #5
ID                                       : 9
Format                                   : UTF-8
Codec ID                                 : S_TEXT/UTF8
Codec ID/Info                            : UTF-8 Plain Text
Duration                                 : 28 min 42 s
Bit rate                                 : 66 b/s
Count of elements                        : 419
Stream size                              : 14.0 KiB (0%)
Title                                    : Inglese [SRT]
Language                                 : English
Default                                  : No
Forced                                   : No

Menu
00:00:00.000                             : it:Intro
00:01:35.050                             : it:Opening
00:03:22.660                             : it:Parte 1
00:12:06.680                             : it:Parte 2
00:25:38.600                             : it:Ending
00:28:24.700                             : it:Anticipazioni

Other Files in this Torrent
Golden Boy 3 480p.x264.Tri-Audio.Ita.Eng.Jap [Rady].mkv
beta
Anime DDL+NZB mirror
Current Time: 19/01/2021 22:28



About/FAQs