Golden Boy 4 480p.x264.Tri-Audio.Ita.Eng.Jap [Rady].mkv


File Size426.7 MB (447,461,951 bytes)
DownloadAnonFiles | ClickNUpload | DropAPK | Free | MultiUp
  • BdUpload
  • DownAce
  • Fichier
  • FileCloud
  • Filerio
  • FilesCdn
  • IndiShare
  • Kbagi
  • Turbobit
  • UpToBox
  • Uppit
| SolidFiles | ZippyShare
HashesCRC32: 40FBE1D4, MD5: D049695708F27A62AF4D4F867A0A0C1F, SHA1: 937A39CA37F53303CA9341658C6F62E18B3CC409, SHA256: 76824BCCDBA285CAFB97F32D6F5943D6039FAFBE059CDB2803AC94C9977300A8, ED2K: 7C66805429818587AB1EAB04BD4A0C30
Screenshots
screenshotscreenshotscreenshotscreenshotscreenshot
SubtitlesAll Attachments | Cartelli [ASS] [ita, ASS], Dialoghi [ASS] [ita, ASS], Cartelli [SRT] [ita, SRT], Dialoghi [SRT] [ita, SRT], Inglese [SRT] [eng, SRT]
Additional Info
General
Unique ID                                : 276144745624046587676092389760089585613 (0xCFBF8B201486DD6ACC109BD779F5F7CD)
Complete name                            : Golden Boy 4 480p.x264.Tri-Audio.Ita.Eng.Jap  [Rady].mkv
Format                                   : Matroska
Format version                           : Version 4
File size                                : 427 MiB
Duration                                 : 28 min 40 s
Overall bit rate                         : 2 081 kb/s
Movie name                               : Golden Boy 2
Encoded date                             : UTC 2020-08-17 22:26:35
Writing application                      : mkvmerge v48.0.0 ('Fortress Around Your Heart') 64-bit
Writing library                          : libebml v1.4.0 + libmatroska v1.6.0

Video
ID                                       : 1
Format                                   : AVC
Format/Info                              : Advanced Video Codec
Format profile                           : High@L3.1
Format settings                          : CABAC / 4 Ref Frames
Format settings, CABAC                   : Yes
Format settings, ReFrames                : 4 frames
Codec ID                                 : V_MPEG4/ISO/AVC
Duration                                 : 28 min 40 s
Bit rate                                 : 1 627 kb/s
Width                                    : 1 024 pixels
Height                                   : 768 pixels
Display aspect ratio                     : 4:3
Frame rate mode                          : Variable
Frame rate                               : 28.285 FPS
Original frame rate                      : 23.976 (24000/1001) FPS
Color space                              : YUV
Chroma subsampling                       : 4:2:0
Bit depth                                : 8 bits
Scan type                                : Progressive
Bits/(Pixel*Frame)                       : 0.073
Stream size                              : 334 MiB (78%)
Writing library                          : x264 core 148 r2638 7599210
Encoding settings                        : cabac=1 / ref=3 / deblock=1:1:2 / analyse=0x3:0x113 / me=hex / subme=7 / psy=1 / psy_rd=1.00:0.00 / mixed_ref=1 / me_range=16 / chroma_me=1 / trellis=1 / 8x8dct=1 / cqm=0 / deadzone=21,11 / fast_pskip=1 / chroma_qp_offset=-2 / threads=12 / lookahead_threads=2 / sliced_threads=0 / nr=0 / decimate=1 / interlaced=0 / bluray_compat=0 / constrained_intra=0 / bframes=3 / b_pyramid=2 / b_adapt=1 / b_bias=0 / direct=1 / weightb=1 / open_gop=0 / weightp=2 / keyint=240 / keyint_min=23 / scenecut=40 / intra_refresh=0 / rc_lookahead=40 / rc=crf / mbtree=1 / crf=22.0 / qcomp=0.60 / qpmin=0 / qpmax=69 / qpstep=4 / ip_ratio=1.40 / aq=1:1.00
Language                                 : Japanese
Default                                  : Yes
Forced                                   : No

Audio #1
ID                                       : 2
Format                                   : AC-3
Format/Info                              : Audio Coding 3
Commercial name                          : Dolby Digital
Codec ID                                 : A_AC3
Duration                                 : 28 min 40 s
Bit rate mode                            : Constant
Bit rate                                 : 192 kb/s
Channel(s)                               : 2 channels
Channel layout                           : L R
Sampling rate                            : 48.0 kHz
Frame rate                               : 31.250 FPS (1536 SPF)
Bit depth                                : 16 bits
Compression mode                         : Lossy
Stream size                              : 39.4 MiB (9%)
Title                                    : Italiano
Language                                 : Italian
Service kind                             : Complete Main
Default                                  : Yes
Forced                                   : No

Audio #2
ID                                       : 3
Format                                   : AAC LC
Format/Info                              : Advanced Audio Codec Low Complexity
Codec ID                                 : A_AAC-2
Duration                                 : 28 min 40 s
Bit rate                                 : 128 kb/s
Channel(s)                               : 2 channels
Channel layout                           : L R
Sampling rate                            : 48.0 kHz
Frame rate                               : 46.875 FPS (1024 SPF)
Compression mode                         : Lossy
Stream size                              : 26.2 MiB (6%)
Title                                    : Giapponese
Language                                 : Japanese
Default                                  : No
Forced                                   : No

Audio #3
ID                                       : 4
Format                                   : AAC LC
Format/Info                              : Advanced Audio Codec Low Complexity
Codec ID                                 : A_AAC-2
Duration                                 : 28 min 40 s
Bit rate                                 : 128 kb/s
Channel(s)                               : 2 channels
Channel layout                           : L R
Sampling rate                            : 48.0 kHz
Frame rate                               : 46.875 FPS (1024 SPF)
Compression mode                         : Lossy
Stream size                              : 26.2 MiB (6%)
Title                                    : Inglese
Language                                 : English
Default                                  : No
Forced                                   : No

Text #1
ID                                       : 5
Format                                   : ASS
Codec ID                                 : S_TEXT/ASS
Codec ID/Info                            : Advanced Sub Station Alpha
Duration                                 : 25 min 55 s
Bit rate                                 : 5 b/s
Count of elements                        : 18
Compression mode                         : Lossless
Stream size                              : 1.05 KiB (0%)
Title                                    : Cartelli [ASS]
Language                                 : Italian
Default                                  : Yes
Forced                                   : No

Text #2
ID                                       : 6
Format                                   : ASS
Codec ID                                 : S_TEXT/ASS
Codec ID/Info                            : Advanced Sub Station Alpha
Duration                                 : 28 min 20 s
Bit rate                                 : 92 b/s
Count of elements                        : 309
Compression mode                         : Lossless
Stream size                              : 19.2 KiB (0%)
Title                                    : Dialoghi [ASS]
Language                                 : Italian
Default                                  : No
Forced                                   : No

Text #3
ID                                       : 7
Format                                   : UTF-8
Codec ID                                 : S_TEXT/UTF8
Codec ID/Info                            : UTF-8 Plain Text
Duration                                 : 25 min 55 s
Bit rate                                 : 3 b/s
Count of elements                        : 17
Stream size                              : 721 Bytes (0%)
Title                                    : Cartelli [SRT]
Language                                 : Italian
Default                                  : No
Forced                                   : No

Text #4
ID                                       : 8
Format                                   : UTF-8
Codec ID                                 : S_TEXT/UTF8
Codec ID/Info                            : UTF-8 Plain Text
Duration                                 : 28 min 20 s
Bit rate                                 : 58 b/s
Count of elements                        : 309
Stream size                              : 12.2 KiB (0%)
Title                                    : Dialoghi [SRT]
Language                                 : Italian
Default                                  : No
Forced                                   : No

Text #5
ID                                       : 9
Format                                   : UTF-8
Codec ID                                 : S_TEXT/UTF8
Codec ID/Info                            : UTF-8 Plain Text
Duration                                 : 28 min 20 s
Bit rate                                 : 57 b/s
Count of elements                        : 366
Stream size                              : 12.0 KiB (0%)
Title                                    : Inglese [SRT]
Language                                 : English
Default                                  : No
Forced                                   : No

Menu
00:00:00.000                             : it:Intro
00:01:01.190                             : it:Opening
00:02:48.500                             : it:Parte 1
00:12:03.600                             : it:Parte 2
00:24:30.300                             : it:Ending
00:28:05.270                             : it:Anticipazioni

Other Files in this Torrent
Golden Boy 4 480p.x264.Tri-Audio.Ita.Eng.Jap [Rady].mkv
beta
Anime DDL+NZB mirror
Current Time: 19/01/2021 21:26



About/FAQs