File Size207.4 MB (217,477,419 bytes)
DownloadClickNUpload | DiskoKosmiko | Go4Up | Jheberg | MultiUp | OpenLoad | Sendspace | SolidFiles | ZippyShare
HashesCRC32: 822F1FD2, MD5: A623F703028B8DB49198B53DC3F14585, SHA1: B6CF1A801B0DC57DFD467F7460CAE4DE8DD7977B, SHA256: 6103A1131B4BAD544BF47723D00DDFEEF85AA5BDDF756BB6EA8996FF28B6823C, ED2K: E0297095FCA36870AD64E7FDAB560E87
Screenshots
screenshotscreenshotscreenshotscreenshotscreenshot
SubtitlesAll Attachments | eng [ASS], spa [ASS], spa [ASS], fre [ASS], ger [ASS], ita [ASS], por [ASS], por [ASS], ara [ASS]
Additional Info
General
Unique ID                                : 294761746302941210853268462904235847886 (0xDDC10C2035830D2810673D8F26CCF0CE)
Complete name                            : [Erai-raws] Violet Evergarden - 13 END [720p][Multiple Subtitle].mkv
Format                                   : Matroska
Format version                           : Version 4 / Version 2
File size                                : 207 MiB
Duration                                 : 23 min 43 s
Overall bit rate mode                    : Variable
Overall bit rate                         : 1 222 kb/s
Encoded date                             : UTC 2018-04-06 15:46:25
Writing application                      : mkvmerge v22.0.0 ('At The End Of The World') 32-bit
Writing library                          : libebml v1.3.5 + libmatroska v1.4.8

Video
ID                                       : 11
Format                                   : AVC
Format/Info                              : Advanced Video Codec
Format profile                           : Main@L3.1
Format settings, CABAC                   : Yes
Format settings, ReFrames                : 3 frames
Codec ID                                 : V_MPEG4/ISO/AVC
Duration                                 : 23 min 43 s
Bit rate mode                            : Variable
Bit rate                                 : 1 100 kb/s
Maximum bit rate                         : 1 650 kb/s
Width                                    : 1 280 pixels
Height                                   : 720 pixels
Display aspect ratio                     : 16:9
Frame rate mode                          : Constant
Frame rate                               : 23.976 (24000/1001) FPS
Color space                              : YUV
Chroma subsampling                       : 4:2:0
Bit depth                                : 8 bits
Scan type                                : Progressive
Bits/(Pixel*Frame)                       : 0.050
Stream size                              : 185 MiB (89%)
Writing library                          : x264 core 148 r2715 7e75228
Encoding settings                        : cabac=1 / ref=3 / deblock=1:0:0 / analyse=0x1:0x111 / me=umh / subme=10 / psy=1 / psy_rd=1.00:0.00 / mixed_ref=1 / me_range=24 / chroma_me=1 / trellis=2 / 8x8dct=0 / cqm=0 / deadzone=21,11 / fast_pskip=1 / chroma_qp_offset=-2 / threads=8 / lookahead_threads=1 / sliced_threads=0 / nr=0 / decimate=1 / interlaced=0 / bluray_compat=0 / stitchable=1 / constrained_intra=0 / bframes=2 / b_pyramid=0 / b_adapt=2 / b_bias=0 / direct=3 / weightb=1 / open_gop=0 / weightp=2 / keyint=48 / keyint_min=25 / scenecut=0 / intra_refresh=0 / rc_lookahead=48 / rc=2pass / mbtree=1 / bitrate=1100 / ratetol=1.0 / qcomp=0.50 / qpmin=6 / qpmax=51 / qpstep=4 / cplxblur=20.0 / qblur=0.5 / vbv_maxrate=1650 / vbv_bufsize=2200 / nal_hrd=vbr / filler=0 / ip_ratio=1.40 / aq=1:1.00
Language                                 : Japanese
Default                                  : Yes
Forced                                   : No

Audio
ID                                       : 1
Format                                   : E-AC-3
Format/Info                              : Enhanced Audio Coding 3
Format settings, Endianness              : Big
Codec ID                                 : A_EAC3
Duration                                 : 23 min 43 s
Bit rate mode                            : Constant
Bit rate                                 : 128 kb/s
Channel(s)                               : 2 channels
Channel positions                        : Front: L R
Sampling rate                            : 48.0 kHz
Frame rate                               : 187.500 FPS (256 spf)
Compression mode                         : Lossy
Stream size                              : 21.7 MiB (10%)
Language                                 : Japanese
Default                                  : Yes
Forced                                   : No

Text #1
ID                                       : 2
Format                                   : ASS
Codec ID                                 : S_TEXT/ASS
Codec ID/Info                            : Advanced Sub Station Alpha
Duration                                 : 23 min 14 s
Bit rate                                 : 75 b/s
Count of elements                        : 249
Compression mode                         : Lossless
Stream size                              : 12.9 KiB (0%)
Language                                 : English
Default                                  : Yes
Forced                                   : No

Text #2
ID                                       : 3
Format                                   : ASS
Codec ID                                 : S_TEXT/ASS
Codec ID/Info                            : Advanced Sub Station Alpha
Duration                                 : 23 min 14 s
Bit rate                                 : 74 b/s
Count of elements                        : 249
Compression mode                         : Lossless
Stream size                              : 12.8 KiB (0%)
Language                                 : Spanish
Default                                  : No
Forced                                   : No

Text #3
ID                                       : 4
Format                                   : ASS
Codec ID                                 : S_TEXT/ASS
Codec ID/Info                            : Advanced Sub Station Alpha
Duration                                 : 23 min 15 s
Bit rate                                 : 78 b/s
Count of elements                        : 248
Compression mode                         : Lossless
Stream size                              : 13.3 KiB (0%)
Language                                 : Spanish
Default                                  : No
Forced                                   : No

Text #4
ID                                       : 5
Format                                   : ASS
Codec ID                                 : S_TEXT/ASS
Codec ID/Info                            : Advanced Sub Station Alpha
Duration                                 : 23 min 14 s
Bit rate                                 : 79 b/s
Count of elements                        : 249
Compression mode                         : Lossless
Stream size                              : 13.5 KiB (0%)
Language                                 : French
Default                                  : No
Forced                                   : No

Text #5
ID                                       : 6
Format                                   : ASS
Codec ID                                 : S_TEXT/ASS
Codec ID/Info                            : Advanced Sub Station Alpha
Duration                                 : 23 min 15 s
Bit rate                                 : 76 b/s
Count of elements                        : 247
Compression mode                         : Lossless
Stream size                              : 13.0 KiB (0%)
Language                                 : German
Default                                  : No
Forced                                   : No

Text #6
ID                                       : 7
Format                                   : ASS
Codec ID                                 : S_TEXT/ASS
Codec ID/Info                            : Advanced Sub Station Alpha
Duration                                 : 23 min 14 s
Bit rate                                 : 77 b/s
Count of elements                        : 248
Compression mode                         : Lossless
Stream size                              : 13.1 KiB (0%)
Language                                 : Italian
Default                                  : No
Forced                                   : No

Text #7
ID                                       : 8
Format                                   : ASS
Codec ID                                 : S_TEXT/ASS
Codec ID/Info                            : Advanced Sub Station Alpha
Duration                                 : 23 min 14 s
Bit rate                                 : 73 b/s
Count of elements                        : 248
Compression mode                         : Lossless
Stream size                              : 12.6 KiB (0%)
Language                                 : Portuguese
Default                                  : No
Forced                                   : No

Text #8
ID                                       : 9
Format                                   : ASS
Codec ID                                 : S_TEXT/ASS
Codec ID/Info                            : Advanced Sub Station Alpha
Duration                                 : 23 min 15 s
Bit rate                                 : 75 b/s
Count of elements                        : 247
Compression mode                         : Lossless
Stream size                              : 12.8 KiB (0%)
Language                                 : Portuguese
Default                                  : No
Forced                                   : No

Text #9
ID                                       : 10
Format                                   : ASS
Codec ID                                 : S_TEXT/ASS
Codec ID/Info                            : Advanced Sub Station Alpha
Duration                                 : 23 min 14 s
Bit rate                                 : 103 b/s
Count of elements                        : 250
Compression mode                         : Lossless
Stream size                              : 17.6 KiB (0%)
Language                                 : Arabic
Default                                  : No
Forced                                   : No

Other Files in this Torrent
[Erai-raws] Violet Evergarden - 13 END [720p][Multiple Subtitle].mkv
beta
Anime DDL+NZB mirror
Current Time: 17/01/2021 16:55



About/FAQs