File Size163.0 MB (170,887,372 bytes)
DownloadClickNUpload | DiskoKosmiko | Go4Up | Jheberg | MultiUp | OpenLoad | Sendspace | SolidFiles | ZippyShare
HashesCRC32: BFFB560F, MD5: 934772FBC5F349BF7EFEE84FF2DD31BF, SHA1: 24CD2C4847D0E3101ED84FA40B2D603F44ADB82C, SHA256: BF9C43785D8A76AE3762FE1098D16B15210FFDEB5DBFFAB0D9F90CC5E45232D0, ED2K: 619DB244E5A9231EA74626E1745EB0C1
Screenshots
screenshotscreenshotscreenshotscreenshotscreenshot
SubtitlesAll Attachments | eng [ASS], spa [ASS], spa [ASS], fre [ASS], ger [ASS], ita [ASS], por [ASS], por [ASS], ara [ASS]
Additional Info
General
Unique ID                                : 251140850317630575030193520084735986615 (0xBCEFF7E85009E4DA8C3E0C2088AF8BB7)
Complete name                            : [Erai-raws] Violet Evergarden - 02 [720p][Multiple Subtitle].mkv
Format                                   : Matroska
Format version                           : Version 4 / Version 2
File size                                : 163 MiB
Duration                                 : 23 min 39 s
Overall bit rate mode                    : Variable
Overall bit rate                         : 963 kb/s
Encoded date                             : UTC 2018-03-28 19:46:28
Writing application                      : mkvmerge v18.0.0 ('Apricity') 64-bit
Writing library                          : libebml v1.3.5 + libmatroska v1.4.8

Video
ID                                       : 1
Format                                   : AVC
Format/Info                              : Advanced Video Codec
Format profile                           : Main@L3.1
Format settings, CABAC                   : Yes
Format settings, ReFrames                : 3 frames
Codec ID                                 : V_MPEG4/ISO/AVC
Duration                                 : 23 min 39 s
Bit rate mode                            : Variable
Bit rate                                 : 832 kb/s
Maximum bit rate                         : 1 245 kb/s
Width                                    : 1 280 pixels
Height                                   : 720 pixels
Display aspect ratio                     : 16:9
Frame rate mode                          : Constant
Frame rate                               : 23.976 (24000/1001) FPS
Color space                              : YUV
Chroma subsampling                       : 4:2:0
Bit depth                                : 8 bits
Scan type                                : Progressive
Bits/(Pixel*Frame)                       : 0.038
Stream size                              : 141 MiB (86%)
Language                                 : Japanese
Default                                  : Yes
Forced                                   : No

Audio
ID                                       : 2
Format                                   : E-AC-3
Format/Info                              : Enhanced Audio Coding 3
Format settings, Endianness              : Big
Codec ID                                 : A_EAC3
Duration                                 : 23 min 39 s
Bit rate mode                            : Constant
Bit rate                                 : 128 kb/s
Channel(s)                               : 2 channels
Channel positions                        : Front: L R
Sampling rate                            : 48.0 kHz
Frame rate                               : 187.500 FPS (256 spf)
Compression mode                         : Lossy
Stream size                              : 21.7 MiB (13%)
Language                                 : Japanese
Default                                  : Yes
Forced                                   : No

Text #1
ID                                       : 3
Format                                   : ASS
Codec ID                                 : S_TEXT/ASS
Codec ID/Info                            : Advanced Sub Station Alpha
Duration                                 : 23 min 37 s
Bit rate                                 : 109 b/s
Count of elements                        : 358
Compression mode                         : Lossless
Stream size                              : 19.0 KiB (0%)
Language                                 : English
Default                                  : Yes
Forced                                   : No

Text #2
ID                                       : 4
Format                                   : ASS
Codec ID                                 : S_TEXT/ASS
Codec ID/Info                            : Advanced Sub Station Alpha
Duration                                 : 23 min 37 s
Bit rate                                 : 109 b/s
Count of elements                        : 358
Compression mode                         : Lossless
Stream size                              : 18.9 KiB (0%)
Language                                 : Spanish
Default                                  : No
Forced                                   : No

Text #3
ID                                       : 5
Format                                   : ASS
Codec ID                                 : S_TEXT/ASS
Codec ID/Info                            : Advanced Sub Station Alpha
Duration                                 : 23 min 37 s
Bit rate                                 : 110 b/s
Count of elements                        : 358
Compression mode                         : Lossless
Stream size                              : 19.1 KiB (0%)
Language                                 : Spanish
Default                                  : No
Forced                                   : No

Text #4
ID                                       : 6
Format                                   : ASS
Codec ID                                 : S_TEXT/ASS
Codec ID/Info                            : Advanced Sub Station Alpha
Duration                                 : 23 min 37 s
Bit rate                                 : 108 b/s
Count of elements                        : 358
Compression mode                         : Lossless
Stream size                              : 18.8 KiB (0%)
Language                                 : French
Default                                  : No
Forced                                   : No

Text #5
ID                                       : 7
Format                                   : ASS
Codec ID                                 : S_TEXT/ASS
Codec ID/Info                            : Advanced Sub Station Alpha
Duration                                 : 23 min 37 s
Bit rate                                 : 106 b/s
Count of elements                        : 351
Compression mode                         : Lossless
Stream size                              : 18.4 KiB (0%)
Language                                 : German
Default                                  : No
Forced                                   : No

Text #6
ID                                       : 8
Format                                   : ASS
Codec ID                                 : S_TEXT/ASS
Codec ID/Info                            : Advanced Sub Station Alpha
Duration                                 : 23 min 37 s
Bit rate                                 : 104 b/s
Count of elements                        : 332
Compression mode                         : Lossless
Stream size                              : 18.1 KiB (0%)
Language                                 : Italian
Default                                  : No
Forced                                   : No

Text #7
ID                                       : 9
Format                                   : ASS
Codec ID                                 : S_TEXT/ASS
Codec ID/Info                            : Advanced Sub Station Alpha
Duration                                 : 23 min 37 s
Bit rate                                 : 105 b/s
Count of elements                        : 354
Compression mode                         : Lossless
Stream size                              : 18.2 KiB (0%)
Language                                 : Portuguese
Default                                  : No
Forced                                   : No

Text #8
ID                                       : 10
Format                                   : ASS
Codec ID                                 : S_TEXT/ASS
Codec ID/Info                            : Advanced Sub Station Alpha
Duration                                 : 23 min 37 s
Bit rate                                 : 104 b/s
Count of elements                        : 324
Compression mode                         : Lossless
Stream size                              : 18.2 KiB (0%)
Language                                 : Portuguese
Default                                  : No
Forced                                   : No

Text #9
ID                                       : 11
Format                                   : ASS
Codec ID                                 : S_TEXT/ASS
Codec ID/Info                            : Advanced Sub Station Alpha
Duration                                 : 23 min 37 s
Bit rate                                 : 155 b/s
Count of elements                        : 357
Compression mode                         : Lossless
Stream size                              : 26.9 KiB (0%)
Language                                 : Arabic
Default                                  : No
Forced                                   : No

Other Files in this Torrent
[Erai-raws] Violet Evergarden - 02 [720p][Multiple Subtitle].mkv
beta
Anime DDL+NZB mirror
Current Time: 22/01/2021 10:15



About/FAQs