File Size247.3 MB (259,331,081 bytes)
DownloadClickNUpload | DiskoKosmiko | Go4Up | Jheberg | MultiUp | OpenLoad | Sendspace | SolidFiles | ZippyShare
HashesCRC32: 7ECAB3EC, MD5: BAA64D69CA3ECBE57A836A3058F81723, SHA1: 70C32689E98420A086C9EF47AC4C3EEE181F628B, SHA256: 6001BFF11FF456F6445742A26AA0F5CE3D7F71C352586AFA389F5932C00003EF, ED2K: A56F3FDF8284B2310F0864C75DAE9A6F
Screenshots
screenshotscreenshotscreenshotscreenshotscreenshot
SubtitlesAll Attachments | eng [ASS], spa [ASS], spa [ASS], fre [ASS], ger [ASS], ita [ASS], por [ASS], por [ASS], ara [ASS]
Additional Info
General
Unique ID                                : 218963125873582472767799418416280898988 (0xA4BAC39AFC8BA72096362D73D2F00DAC)
Complete name                            : [Erai-raws] Violet Evergarden - 12 [720p][Multiple Subtitle].mkv
Format                                   : Matroska
Format version                           : Version 4 / Version 2
File size                                : 247 MiB
Duration                                 : 23 min 43 s
Overall bit rate mode                    : Variable
Overall bit rate                         : 1 458 kb/s
Encoded date                             : UTC 2018-03-29 13:16:01
Writing application                      : mkvmerge v18.0.0 ('Apricity') 64-bit
Writing library                          : libebml v1.3.5 + libmatroska v1.4.8

Video
ID                                       : 11
Format                                   : AVC
Format/Info                              : Advanced Video Codec
Format profile                           : Main@L3.1
Format settings, CABAC                   : Yes
Format settings, ReFrames                : 3 frames
Codec ID                                 : V_MPEG4/ISO/AVC
Duration                                 : 23 min 43 s
Bit rate mode                            : Variable
Bit rate                                 : 1 330 kb/s
Maximum bit rate                         : 1 995 kb/s
Width                                    : 1 280 pixels
Height                                   : 720 pixels
Display aspect ratio                     : 16:9
Frame rate mode                          : Constant
Frame rate                               : 23.976 (24000/1001) FPS
Color space                              : YUV
Chroma subsampling                       : 4:2:0
Bit depth                                : 8 bits
Scan type                                : Progressive
Bits/(Pixel*Frame)                       : 0.060
Stream size                              : 225 MiB (91%)
Writing library                          : x264 core 148 r2715 7e75228
Encoding settings                        : cabac=1 / ref=3 / deblock=1:0:0 / analyse=0x1:0x111 / me=umh / subme=10 / psy=1 / psy_rd=1.00:0.00 / mixed_ref=1 / me_range=24 / chroma_me=1 / trellis=2 / 8x8dct=0 / cqm=0 / deadzone=21,11 / fast_pskip=1 / chroma_qp_offset=-2 / threads=8 / lookahead_threads=1 / sliced_threads=0 / nr=0 / decimate=1 / interlaced=0 / bluray_compat=0 / stitchable=1 / constrained_intra=0 / bframes=2 / b_pyramid=0 / b_adapt=2 / b_bias=0 / direct=3 / weightb=1 / open_gop=0 / weightp=2 / keyint=48 / keyint_min=25 / scenecut=0 / intra_refresh=0 / rc_lookahead=48 / rc=2pass / mbtree=1 / bitrate=1330 / ratetol=1.0 / qcomp=0.50 / qpmin=6 / qpmax=51 / qpstep=4 / cplxblur=20.0 / qblur=0.5 / vbv_maxrate=1995 / vbv_bufsize=2660 / nal_hrd=vbr / filler=0 / ip_ratio=1.40 / aq=1:1.00
Language                                 : Japanese
Default                                  : Yes
Forced                                   : No

Audio
ID                                       : 1
Format                                   : E-AC-3
Format/Info                              : Enhanced Audio Coding 3
Format settings, Endianness              : Big
Codec ID                                 : A_EAC3
Duration                                 : 23 min 43 s
Bit rate mode                            : Constant
Bit rate                                 : 128 kb/s
Channel(s)                               : 2 channels
Channel positions                        : Front: L R
Sampling rate                            : 48.0 kHz
Frame rate                               : 187.500 FPS (256 spf)
Compression mode                         : Lossy
Stream size                              : 21.7 MiB (9%)
Language                                 : Japanese
Default                                  : Yes
Forced                                   : No

Text #1
ID                                       : 2
Format                                   : ASS
Codec ID                                 : S_TEXT/ASS
Codec ID/Info                            : Advanced Sub Station Alpha
Duration                                 : 21 min 49 s
Bit rate                                 : 91 b/s
Count of elements                        : 250
Compression mode                         : Lossless
Stream size                              : 14.7 KiB (0%)
Language                                 : English
Default                                  : Yes
Forced                                   : No

Text #2
ID                                       : 3
Format                                   : ASS
Codec ID                                 : S_TEXT/ASS
Codec ID/Info                            : Advanced Sub Station Alpha
Duration                                 : 21 min 49 s
Bit rate                                 : 90 b/s
Count of elements                        : 250
Compression mode                         : Lossless
Stream size                              : 14.5 KiB (0%)
Language                                 : Spanish
Default                                  : No
Forced                                   : No

Text #3
ID                                       : 4
Format                                   : ASS
Codec ID                                 : S_TEXT/ASS
Codec ID/Info                            : Advanced Sub Station Alpha
Duration                                 : 21 min 49 s
Bit rate                                 : 90 b/s
Count of elements                        : 243
Compression mode                         : Lossless
Stream size                              : 14.5 KiB (0%)
Language                                 : Spanish
Default                                  : No
Forced                                   : No

Text #4
ID                                       : 5
Format                                   : ASS
Codec ID                                 : S_TEXT/ASS
Codec ID/Info                            : Advanced Sub Station Alpha
Duration                                 : 21 min 49 s
Bit rate                                 : 87 b/s
Count of elements                        : 249
Compression mode                         : Lossless
Stream size                              : 14.0 KiB (0%)
Language                                 : French
Default                                  : No
Forced                                   : No

Text #5
ID                                       : 6
Format                                   : ASS
Codec ID                                 : S_TEXT/ASS
Codec ID/Info                            : Advanced Sub Station Alpha
Duration                                 : 21 min 49 s
Bit rate                                 : 88 b/s
Count of elements                        : 250
Compression mode                         : Lossless
Stream size                              : 14.1 KiB (0%)
Language                                 : German
Default                                  : No
Forced                                   : No

Text #6
ID                                       : 7
Format                                   : ASS
Codec ID                                 : S_TEXT/ASS
Codec ID/Info                            : Advanced Sub Station Alpha
Duration                                 : 21 min 48 s
Bit rate                                 : 86 b/s
Count of elements                        : 245
Compression mode                         : Lossless
Stream size                              : 13.8 KiB (0%)
Language                                 : Italian
Default                                  : No
Forced                                   : No

Text #7
ID                                       : 8
Format                                   : ASS
Codec ID                                 : S_TEXT/ASS
Codec ID/Info                            : Advanced Sub Station Alpha
Duration                                 : 21 min 49 s
Bit rate                                 : 85 b/s
Count of elements                        : 250
Compression mode                         : Lossless
Stream size                              : 13.7 KiB (0%)
Language                                 : Portuguese
Default                                  : No
Forced                                   : No

Text #8
ID                                       : 9
Format                                   : ASS
Codec ID                                 : S_TEXT/ASS
Codec ID/Info                            : Advanced Sub Station Alpha
Duration                                 : 21 min 49 s
Bit rate                                 : 88 b/s
Count of elements                        : 244
Compression mode                         : Lossless
Stream size                              : 14.1 KiB (0%)
Language                                 : Portuguese
Default                                  : No
Forced                                   : No

Text #9
ID                                       : 10
Format                                   : ASS
Codec ID                                 : S_TEXT/ASS
Codec ID/Info                            : Advanced Sub Station Alpha
Duration                                 : 21 min 49 s
Bit rate                                 : 130 b/s
Count of elements                        : 250
Compression mode                         : Lossless
Stream size                              : 20.8 KiB (0%)
Language                                 : Arabic
Default                                  : No
Forced                                   : No

Other Files in this Torrent
[Erai-raws] Violet Evergarden - 12 [720p][Multiple Subtitle].mkv
beta
Anime DDL+NZB mirror
Current Time: 01/03/2021 21:43



About/FAQs