File Size168.8 MB (176,970,138 bytes)
DownloadClickNUpload | DiskoKosmiko | Go4Up | Jheberg | MultiUp | OpenLoad | Sendspace | SolidFiles | ZippyShare
HashesCRC32: 1678CDCD, MD5: 69C3CB3048BD8E8EA7E073FC2B35796E, SHA1: 26209EC80F402713E6EE182B9ECF2BA7D2BEABB7, SHA256: D40AD01D0AA73A7CF371AF2F86F9DD2F528BF40F21C1E8D7BAB644E66A6D2E53, ED2K: EAA5E6F212E9BBAAB43D791D6B260C93
Screenshots
screenshotscreenshotscreenshotscreenshotscreenshot
SubtitlesAll Attachments | eng [ASS], spa [ASS], spa [ASS], fre [ASS], ger [ASS], ita [ASS], por [ASS], por [ASS], ara [ASS]
Additional Info
General
Unique ID                                : 225572002635701919184581908343884140928 (0xA9B39663114516319A72CE02964CD180)
Complete name                            : [Erai-raws] Violet Evergarden - 11 [720p][Multiple Subtitle].mkv
Format                                   : Matroska
Format version                           : Version 4 / Version 2
File size                                : 169 MiB
Duration                                 : 23 min 43 s
Overall bit rate mode                    : Variable
Overall bit rate                         : 995 kb/s
Encoded date                             : UTC 2018-03-28 19:56:22
Writing application                      : mkvmerge v18.0.0 ('Apricity') 64-bit
Writing library                          : libebml v1.3.5 + libmatroska v1.4.8

Video
ID                                       : 1
Format                                   : AVC
Format/Info                              : Advanced Video Codec
Format profile                           : Main@L3.1
Format settings, CABAC                   : Yes
Format settings, ReFrames                : 3 frames
Codec ID                                 : V_MPEG4/ISO/AVC
Duration                                 : 23 min 43 s
Bit rate mode                            : Variable
Bit rate                                 : 870 kb/s
Maximum bit rate                         : 1 305 kb/s
Width                                    : 1 280 pixels
Height                                   : 720 pixels
Display aspect ratio                     : 16:9
Frame rate mode                          : Constant
Frame rate                               : 23.976 (24000/1001) FPS
Color space                              : YUV
Chroma subsampling                       : 4:2:0
Bit depth                                : 8 bits
Scan type                                : Progressive
Bits/(Pixel*Frame)                       : 0.039
Stream size                              : 147 MiB (87%)
Writing library                          : x264 core 148 r2714 2daf636
Encoding settings                        : cabac=1 / ref=3 / deblock=1:0:0 / analyse=0x1:0x111 / me=umh / subme=10 / psy=1 / psy_rd=1.00:0.00 / mixed_ref=1 / me_range=24 / chroma_me=1 / trellis=2 / 8x8dct=0 / cqm=0 / deadzone=21,11 / fast_pskip=1 / chroma_qp_offset=-2 / threads=6 / lookahead_threads=1 / sliced_threads=0 / nr=0 / decimate=1 / interlaced=0 / bluray_compat=0 / stitchable=1 / constrained_intra=0 / bframes=2 / b_pyramid=0 / b_adapt=2 / b_bias=0 / direct=3 / weightb=1 / open_gop=0 / weightp=2 / keyint=48 / keyint_min=25 / scenecut=0 / intra_refresh=0 / rc_lookahead=48 / rc=2pass / mbtree=1 / bitrate=870 / ratetol=1.0 / qcomp=0.50 / qpmin=6 / qpmax=51 / qpstep=4 / cplxblur=20.0 / qblur=0.5 / vbv_maxrate=1305 / vbv_bufsize=1740 / nal_hrd=vbr / filler=0 / ip_ratio=1.40 / aq=1:1.00
Language                                 : Japanese
Default                                  : Yes
Forced                                   : No

Audio
ID                                       : 2
Format                                   : E-AC-3
Format/Info                              : Enhanced Audio Coding 3
Format settings, Endianness              : Big
Codec ID                                 : A_EAC3
Duration                                 : 23 min 43 s
Bit rate mode                            : Constant
Bit rate                                 : 128 kb/s
Channel(s)                               : 2 channels
Channel positions                        : Front: L R
Sampling rate                            : 48.0 kHz
Frame rate                               : 187.500 FPS (256 spf)
Compression mode                         : Lossy
Stream size                              : 21.7 MiB (13%)
Language                                 : Japanese
Default                                  : Yes
Forced                                   : No

Text #1
ID                                       : 3
Format                                   : ASS
Codec ID                                 : S_TEXT/ASS
Codec ID/Info                            : Advanced Sub Station Alpha
Duration                                 : 23 min 31 s
Bit rate                                 : 67 b/s
Count of elements                        : 239
Compression mode                         : Lossless
Stream size                              : 11.7 KiB (0%)
Language                                 : English
Default                                  : Yes
Forced                                   : No

Text #2
ID                                       : 4
Format                                   : ASS
Codec ID                                 : S_TEXT/ASS
Codec ID/Info                            : Advanced Sub Station Alpha
Duration                                 : 23 min 31 s
Bit rate                                 : 65 b/s
Count of elements                        : 238
Compression mode                         : Lossless
Stream size                              : 11.4 KiB (0%)
Language                                 : Spanish
Default                                  : No
Forced                                   : No

Text #3
ID                                       : 5
Format                                   : ASS
Codec ID                                 : S_TEXT/ASS
Codec ID/Info                            : Advanced Sub Station Alpha
Duration                                 : 23 min 31 s
Bit rate                                 : 68 b/s
Count of elements                        : 235
Compression mode                         : Lossless
Stream size                              : 11.8 KiB (0%)
Language                                 : Spanish
Default                                  : No
Forced                                   : No

Text #4
ID                                       : 6
Format                                   : ASS
Codec ID                                 : S_TEXT/ASS
Codec ID/Info                            : Advanced Sub Station Alpha
Duration                                 : 23 min 31 s
Bit rate                                 : 66 b/s
Count of elements                        : 237
Compression mode                         : Lossless
Stream size                              : 11.5 KiB (0%)
Language                                 : French
Default                                  : No
Forced                                   : No

Text #5
ID                                       : 7
Format                                   : ASS
Codec ID                                 : S_TEXT/ASS
Codec ID/Info                            : Advanced Sub Station Alpha
Duration                                 : 23 min 31 s
Bit rate                                 : 68 b/s
Count of elements                        : 238
Compression mode                         : Lossless
Stream size                              : 11.7 KiB (0%)
Language                                 : German
Default                                  : No
Forced                                   : No

Text #6
ID                                       : 8
Format                                   : ASS
Codec ID                                 : S_TEXT/ASS
Codec ID/Info                            : Advanced Sub Station Alpha
Duration                                 : 23 min 31 s
Bit rate                                 : 67 b/s
Count of elements                        : 237
Compression mode                         : Lossless
Stream size                              : 11.6 KiB (0%)
Language                                 : Italian
Default                                  : No
Forced                                   : No

Text #7
ID                                       : 9
Format                                   : ASS
Codec ID                                 : S_TEXT/ASS
Codec ID/Info                            : Advanced Sub Station Alpha
Duration                                 : 23 min 31 s
Bit rate                                 : 64 b/s
Count of elements                        : 238
Compression mode                         : Lossless
Stream size                              : 11.2 KiB (0%)
Language                                 : Portuguese
Default                                  : No
Forced                                   : No

Text #8
ID                                       : 10
Format                                   : ASS
Codec ID                                 : S_TEXT/ASS
Codec ID/Info                            : Advanced Sub Station Alpha
Duration                                 : 23 min 31 s
Bit rate                                 : 66 b/s
Count of elements                        : 237
Compression mode                         : Lossless
Stream size                              : 11.4 KiB (0%)
Language                                 : Portuguese
Default                                  : No
Forced                                   : No

Text #9
ID                                       : 11
Format                                   : ASS
Codec ID                                 : S_TEXT/ASS
Codec ID/Info                            : Advanced Sub Station Alpha
Duration                                 : 23 min 31 s
Bit rate                                 : 93 b/s
Count of elements                        : 238
Compression mode                         : Lossless
Stream size                              : 16.1 KiB (0%)
Language                                 : Arabic
Default                                  : No
Forced                                   : No

Other Files in this Torrent
[Erai-raws] Violet Evergarden - 11 [720p][Multiple Subtitle].mkv
beta
Anime DDL+NZB mirror
Current Time: 17/01/2021 15:56



About/FAQs