File Size418.3 MB (438,571,380 bytes)
DownloadClickNUpload | DownloadGG | GoFile | KrakenFiles | MdiaLoad | MultiUp
  • BdUpload
  • DownAce
  • Fichier
  • FileCloud
  • Filerio
  • FilesCdn
  • IndiShare
  • Kbagi
  • Turbobit
  • UpToBox
  • Uppit
HashesCRC32: 50FD68F3, MD5: 15419BD1D2F800DB4A06859624B4AE27, SHA1: 6A34499D6D4E71B744EAD3BF3883A7D43430E61B, SHA256: 5260DD8E1D650B876F126B08D97CBC5394C1B0A34A89ED9882A26BBBB63F7A91, ED2K: 8723CCBF57C1EABD7A5B078B239E60CE
Screenshots
screenshotscreenshotscreenshotscreenshotscreenshot
SubtitlesAll Attachments | English [eng, ASS], Spanish(Latin_America) [spa, ASS]
Additional Info
General
Unique ID                                : 289933052425149701427948884798686277783 (0xDA1F132308946A838D8E8DB01B62B097)
Complete name                            : [Erai-raws] Karakai Jouzu no Takagi-san 3 - 12 [720p][Multiple Subtitle][50FD68F3].mkv
Format                                   : Matroska
Format version                           : Version 4
File size                                : 418 MiB
Duration                                 : 24 min 9 s
Overall bit rate                         : 2 421 kb/s
Movie name                               : 12
Encoded date                             : UTC 2023-07-05 00:54:17
Writing application                      : mkvmerge v76.0 ('Celebration') 64-bit
Writing library                          : libebml v1.4.4 + libmatroska v1.7.1
Attachments                              : AdLibBT.ttf / AdLibRg.ttf / ARIALBD_0.TTF / ARIALNB.TTF / arlrdbd.ttf / BakerSignetBT.ttf / BakerSignetBTRoman.ttf / BalloonBdBTBold.ttf / balonxb.ttf / BRADHITC.ttf / calibrib_0.ttf / calibril_0.ttf / CooperMediumBT.ttf / Creeper Black.ttf / Impress.ttf / ITCKRIST.ttf / MeadBold.ttf / segoeprb_0.ttf / SqueakyChalkSound.ttf / Swis721_BT_Bold.ttf / tahomabd_0.ttf / TEMPSITC.TTF / VAGRoundedBT.ttf

Video
ID                                       : 1
Format                                   : AVC
Format/Info                              : Advanced Video Codec
Format profile                           : High@L3.1
Format settings                          : CABAC / 4 Ref Frames
Format settings, CABAC                   : Yes
Format settings, Reference frames        : 4 frames
Codec ID                                 : V_MPEG4/ISO/AVC
Duration                                 : 24 min 9 s
Bit rate mode                            : Constant
Bit rate                                 : 1 968 kb/s
Nominal bit rate                         : 6 000 kb/s
Width                                    : 1 280 pixels
Height                                   : 720 pixels
Display aspect ratio                     : 16:9
Frame rate mode                          : Constant
Frame rate                               : 24.000 FPS
Color space                              : YUV
Chroma subsampling                       : 4:2:0
Bit depth                                : 8 bits
Scan type                                : Progressive
Bits/(Pixel*Frame)                       : 0.089
Stream size                              : 340 MiB (81%)
Language                                 : Japanese
Default                                  : Yes
Forced                                   : No
Color range                              : Limited
Color primaries                          : BT.709
Transfer characteristics                 : BT.709
Matrix coefficients                      : BT.709

Audio #1
ID                                       : 2
Format                                   : AAC LC
Format/Info                              : Advanced Audio Codec Low Complexity
Codec ID                                 : A_AAC-2
Duration                                 : 24 min 9 s
Bit rate                                 : 192 kb/s
Channel(s)                               : 2 channels
Channel layout                           : L R
Sampling rate                            : 48.0 kHz
Frame rate                               : 46.875 FPS (1024 SPF)
Compression mode                         : Lossy
Stream size                              : 33.2 MiB (8%)
Language                                 : Japanese
Default                                  : Yes
Forced                                   : No

Audio #2
ID                                       : 3
Format                                   : E-AC-3
Format/Info                              : Enhanced AC-3
Commercial name                          : Dolby Digital Plus
Codec ID                                 : A_EAC3
Duration                                 : 24 min 9 s
Bit rate mode                            : Constant
Bit rate                                 : 224 kb/s
Channel(s)                               : 2 channels
Channel layout                           : L R
Sampling rate                            : 48.0 kHz
Frame rate                               : 31.250 FPS (1536 SPF)
Compression mode                         : Lossy
Stream size                              : 38.7 MiB (9%)
Language                                 : Japanese
Service kind                             : Complete Main
Default                                  : Yes
Forced                                   : No

Text #1
ID                                       : 4
Format                                   : ASS
Codec ID                                 : S_TEXT/ASS
Codec ID/Info                            : Advanced Sub Station Alpha
Duration                                 : 23 min 28 s
Bit rate                                 : 116 b/s
Count of elements                        : 355
Compression mode                         : Lossless
Stream size                              : 20.1 KiB (0%)
Title                                    : English
Language                                 : English
Default                                  : Yes
Forced                                   : No

Text #2
ID                                       : 5
Format                                   : ASS
Codec ID                                 : S_TEXT/ASS
Codec ID/Info                            : Advanced Sub Station Alpha
Duration                                 : 23 min 27 s
Bit rate                                 : 110 b/s
Count of elements                        : 347
Compression mode                         : Lossless
Stream size                              : 19.0 KiB (0%)
Title                                    : Spanish(Latin_America)
Language                                 : Spanish
Default                                  : No
Forced                                   : No

Other Files in this Torrent
[Erai-raws] Karakai Jouzu no Takagi-san 3 - 12 [720p][Multiple Subtitle][50FD68F3].mkv
beta
Anime DDL+NZB mirror
Current Time: 24/02/2024 05:52



About/FAQs

Discord