File Size392.6 MB (411,629,728 bytes)
DownloadClickNUpload | DownloadGG | GoFile | KrakenFiles | MdiaLoad | MultiUp
  • BdUpload
  • DownAce
  • Fichier
  • FileCloud
  • Filerio
  • FilesCdn
  • IndiShare
  • Kbagi
  • Turbobit
  • UpToBox
  • Uppit
HashesCRC32: CBD2AC29, MD5: 5CA6ACB55605842CA62F34E73AA4F2F0, SHA1: 65E2D4DD356501675D49D9DD87E485E0832D0DDD, SHA256: 3BB17E55FCC0329928C757C9FC1CFDD601D580EDCF06EDB3ACD8C1E671697BC5, ED2K: 1EFE8D2CBFB7CACE46E2C9D3934F7963
Screenshots
screenshotscreenshotscreenshotscreenshotscreenshot
SubtitlesAll Attachments | English [eng, ASS], Spanish(Latin_America) [spa, ASS]
Additional Info
General
Unique ID                                : 131440050282471086408817342660418039326 (0x62E26ED0C51F31077F40FA088E1D6E1E)
Complete name                            : [Erai-raws] Karakai Jouzu no Takagi-san 3 - 08 [720p][Multiple Subtitle][CBD2AC29].mkv
Format                                   : Matroska
Format version                           : Version 4
File size                                : 393 MiB
Duration                                 : 24 min 8 s
Overall bit rate                         : 2 273 kb/s
Movie name                               : 08
Encoded date                             : UTC 2023-07-05 00:54:14
Writing application                      : mkvmerge v76.0 ('Celebration') 64-bit
Writing library                          : libebml v1.4.4 + libmatroska v1.7.1
Attachments                              : AdLibBT.ttf / AdLibRg.ttf / ARIALBD_0.TTF / ARIALNB.TTF / arlrdbd.ttf / BakerSignetBT.ttf / BakerSignetBTRoman.ttf / BalloonBdBTBold.ttf / balonxb.ttf / BRADHITC.ttf / calibrib_0.ttf / calibril_0.ttf / CooperMediumBT.ttf / Creeper Black.ttf / Impress.ttf / ITCKRIST.ttf / MeadBold.ttf / segoeprb_0.ttf / SqueakyChalkSound.ttf / Swis721_BT_Bold.ttf / tahomabd_0.ttf / TEMPSITC.TTF / VAGRoundedBT.ttf

Video
ID                                       : 1
Format                                   : AVC
Format/Info                              : Advanced Video Codec
Format profile                           : High@L3.1
Format settings                          : CABAC / 4 Ref Frames
Format settings, CABAC                   : Yes
Format settings, Reference frames        : 4 frames
Codec ID                                 : V_MPEG4/ISO/AVC
Duration                                 : 24 min 8 s
Bit rate mode                            : Constant
Bit rate                                 : 1 820 kb/s
Nominal bit rate                         : 6 000 kb/s
Width                                    : 1 280 pixels
Height                                   : 720 pixels
Display aspect ratio                     : 16:9
Frame rate mode                          : Constant
Frame rate                               : 24.000 FPS
Color space                              : YUV
Chroma subsampling                       : 4:2:0
Bit depth                                : 8 bits
Scan type                                : Progressive
Bits/(Pixel*Frame)                       : 0.082
Stream size                              : 314 MiB (80%)
Language                                 : Japanese
Default                                  : Yes
Forced                                   : No
Color range                              : Limited
Color primaries                          : BT.709
Transfer characteristics                 : BT.709
Matrix coefficients                      : BT.709

Audio #1
ID                                       : 2
Format                                   : AAC LC
Format/Info                              : Advanced Audio Codec Low Complexity
Codec ID                                 : A_AAC-2
Duration                                 : 24 min 8 s
Bit rate                                 : 192 kb/s
Channel(s)                               : 2 channels
Channel layout                           : L R
Sampling rate                            : 48.0 kHz
Frame rate                               : 46.875 FPS (1024 SPF)
Compression mode                         : Lossy
Stream size                              : 33.2 MiB (8%)
Language                                 : Japanese
Default                                  : Yes
Forced                                   : No

Audio #2
ID                                       : 3
Format                                   : E-AC-3
Format/Info                              : Enhanced AC-3
Commercial name                          : Dolby Digital Plus
Codec ID                                 : A_EAC3
Duration                                 : 24 min 8 s
Bit rate mode                            : Constant
Bit rate                                 : 224 kb/s
Channel(s)                               : 2 channels
Channel layout                           : L R
Sampling rate                            : 48.0 kHz
Frame rate                               : 31.250 FPS (1536 SPF)
Compression mode                         : Lossy
Stream size                              : 38.7 MiB (10%)
Language                                 : Japanese
Service kind                             : Complete Main
Default                                  : Yes
Forced                                   : No

Text #1
ID                                       : 4
Format                                   : ASS
Codec ID                                 : S_TEXT/ASS
Codec ID/Info                            : Advanced Sub Station Alpha
Duration                                 : 21 min 58 s
Bit rate                                 : 132 b/s
Count of elements                        : 382
Compression mode                         : Lossless
Stream size                              : 21.4 KiB (0%)
Title                                    : English
Language                                 : English
Default                                  : Yes
Forced                                   : No

Text #2
ID                                       : 5
Format                                   : ASS
Codec ID                                 : S_TEXT/ASS
Codec ID/Info                            : Advanced Sub Station Alpha
Duration                                 : 21 min 58 s
Bit rate                                 : 131 b/s
Count of elements                        : 386
Compression mode                         : Lossless
Stream size                              : 21.1 KiB (0%)
Title                                    : Spanish(Latin_America)
Language                                 : Spanish
Default                                  : No
Forced                                   : No

Other Files in this Torrent
[Erai-raws] Karakai Jouzu no Takagi-san 3 - 08 [720p][Multiple Subtitle][CBD2AC29].mkv
beta
Anime DDL+NZB mirror
Current Time: 24/02/2024 05:25



About/FAQs

Discord