File Size372.4 MB (390,482,025 bytes)
DownloadAnonFiles | ClickNUpload | DownloadGG | GoFile | KrakenFiles | MdiaLoad | MultiUp
  • BdUpload
  • DownAce
  • Fichier
  • FileCloud
  • Filerio
  • FilesCdn
  • IndiShare
  • Kbagi
  • Turbobit
  • UpToBox
  • Uppit
HashesCRC32: 626A3F51, MD5: 8CC98EAE9523BE23D4CF2D4F65961389, SHA1: 81BE796BADB261947A97987CB1FA96B70CD1D48F, SHA256: 25DDA7978633FE4700DFA18C46B84A752A3640AD56051CCB52FD7C5D833EF158, ED2K: 3C540809D0E469BAB21AC429FC0296F5
Screenshots
screenshotscreenshotscreenshotscreenshotscreenshot
SubtitlesAll Attachments | English [eng, ASS], Spanish(Latin_America) [spa, ASS]
Additional Info
General
Unique ID                                : 67542127355672901304887538165639089505 (0x32D023FB9F201E297D21E5CFC7650D61)
Complete name                            : [Erai-raws] Karakai Jouzu no Takagi-san 3 - 03 [720p][Multiple Subtitle][626A3F51].mkv
Format                                   : Matroska
Format version                           : Version 4
File size                                : 372 MiB
Duration                                 : 24 min 8 s
Overall bit rate                         : 2 157 kb/s
Movie name                               : 03
Encoded date                             : UTC 2023-07-05 00:54:11
Writing application                      : mkvmerge v76.0 ('Celebration') 64-bit
Writing library                          : libebml v1.4.4 + libmatroska v1.7.1
Attachments                              : AdLibBT.ttf / AdLibRg.ttf / ARIALBD_0.TTF / ARIALNB.TTF / arlrdbd.ttf / BakerSignetBT.ttf / BakerSignetBTRoman.ttf / BalloonBdBTBold.ttf / balonxb.ttf / BRADHITC.ttf / calibrib_0.ttf / calibril_0.ttf / CooperMediumBT.ttf / Creeper Black.ttf / Impress.ttf / ITCKRIST.ttf / MeadBold.ttf / segoeprb_0.ttf / SqueakyChalkSound.ttf / Swis721_BT_Bold.ttf / tahomabd_0.ttf / TEMPSITC.TTF / VAGRoundedBT.ttf

Video
ID                                       : 1
Format                                   : AVC
Format/Info                              : Advanced Video Codec
Format profile                           : High@L3.1
Format settings                          : CABAC / 4 Ref Frames
Format settings, CABAC                   : Yes
Format settings, Reference frames        : 4 frames
Codec ID                                 : V_MPEG4/ISO/AVC
Duration                                 : 24 min 8 s
Bit rate mode                            : Constant
Bit rate                                 : 1 704 kb/s
Nominal bit rate                         : 6 000 kb/s
Width                                    : 1 280 pixels
Height                                   : 720 pixels
Display aspect ratio                     : 16:9
Frame rate mode                          : Constant
Frame rate                               : 24.000 FPS
Color space                              : YUV
Chroma subsampling                       : 4:2:0
Bit depth                                : 8 bits
Scan type                                : Progressive
Bits/(Pixel*Frame)                       : 0.077
Stream size                              : 294 MiB (79%)
Language                                 : Japanese
Default                                  : Yes
Forced                                   : No
Color range                              : Limited
Color primaries                          : BT.709
Transfer characteristics                 : BT.709
Matrix coefficients                      : BT.709

Audio #1
ID                                       : 2
Format                                   : AAC LC
Format/Info                              : Advanced Audio Codec Low Complexity
Codec ID                                 : A_AAC-2
Duration                                 : 24 min 8 s
Bit rate                                 : 192 kb/s
Channel(s)                               : 2 channels
Channel layout                           : L R
Sampling rate                            : 48.0 kHz
Frame rate                               : 46.875 FPS (1024 SPF)
Compression mode                         : Lossy
Stream size                              : 33.2 MiB (9%)
Language                                 : Japanese
Default                                  : Yes
Forced                                   : No

Audio #2
ID                                       : 3
Format                                   : E-AC-3
Format/Info                              : Enhanced AC-3
Commercial name                          : Dolby Digital Plus
Codec ID                                 : A_EAC3
Duration                                 : 24 min 8 s
Bit rate mode                            : Constant
Bit rate                                 : 224 kb/s
Channel(s)                               : 2 channels
Channel layout                           : L R
Sampling rate                            : 48.0 kHz
Frame rate                               : 31.250 FPS (1536 SPF)
Compression mode                         : Lossy
Stream size                              : 38.7 MiB (10%)
Language                                 : Japanese
Service kind                             : Complete Main
Default                                  : Yes
Forced                                   : No

Text #1
ID                                       : 4
Format                                   : ASS
Codec ID                                 : S_TEXT/ASS
Codec ID/Info                            : Advanced Sub Station Alpha
Duration                                 : 20 min 36 s
Bit rate                                 : 113 b/s
Count of elements                        : 328
Compression mode                         : Lossless
Stream size                              : 17.1 KiB (0%)
Title                                    : English
Language                                 : English
Default                                  : Yes
Forced                                   : No

Text #2
ID                                       : 5
Format                                   : ASS
Codec ID                                 : S_TEXT/ASS
Codec ID/Info                            : Advanced Sub Station Alpha
Duration                                 : 20 min 36 s
Bit rate                                 : 114 b/s
Count of elements                        : 333
Compression mode                         : Lossless
Stream size                              : 17.2 KiB (0%)
Title                                    : Spanish(Latin_America)
Language                                 : Spanish
Default                                  : No
Forced                                   : No

Other Files in this Torrent
[Erai-raws] Karakai Jouzu no Takagi-san 3 - 03 [720p][Multiple Subtitle][626A3F51].mkv
beta
Anime DDL+NZB mirror
Current Time: 24/02/2024 06:22



About/FAQs

Discord