File Size420.6 MB (441,060,658 bytes)
DownloadClickNUpload | DownloadGG | GoFile | KrakenFiles | MdiaLoad | MultiUp
  • BdUpload
  • DownAce
  • Fichier
  • FileCloud
  • Filerio
  • FilesCdn
  • IndiShare
  • Kbagi
  • Turbobit
  • UpToBox
  • Uppit
HashesCRC32: E01F8134, MD5: 5A576AD4EC4A65A90DA740CF8F88E45C, SHA1: 82D66BCB076573540E0E15C80949E2770EE27B16, SHA256: 21C6E35ECEB3700223FA474F8B63C73D02B7AF1F5A2A80BF31B9F0550D9011A9, ED2K: D58BD889DE6E95739753543B23B0CCB8
Screenshots
screenshotscreenshotscreenshotscreenshotscreenshot
SubtitlesAll Attachments | English [eng, ASS], Spanish(Latin_America) [spa, ASS]
Additional Info
General
Unique ID                                : 79405120918236036091620009417507220168 (0x3BBCDEB91161B737653380FFEAF62AC8)
Complete name                            : [Erai-raws] Karakai Jouzu no Takagi-san 3 - 01 [720p][Multiple Subtitle][E01F8134].mkv
Format                                   : Matroska
Format version                           : Version 4
File size                                : 421 MiB
Duration                                 : 24 min 8 s
Overall bit rate                         : 2 436 kb/s
Movie name                               : 01
Encoded date                             : UTC 2023-07-05 00:54:09
Writing application                      : mkvmerge v76.0 ('Celebration') 64-bit
Writing library                          : libebml v1.4.4 + libmatroska v1.7.1
Attachments                              : AdLibBT.ttf / AdLibRg.ttf / ARIALBD_0.TTF / ARIALNB.TTF / arlrdbd.ttf / BakerSignetBT.ttf / BakerSignetBTRoman.ttf / BalloonBdBTBold.ttf / balonxb.ttf / BRADHITC.ttf / calibrib_0.ttf / calibril_0.ttf / CooperMediumBT.ttf / Creeper Black.ttf / Impress.ttf / ITCKRIST.ttf / MeadBold.ttf / segoeprb_0.ttf / SqueakyChalkSound.ttf / Swis721_BT_Bold.ttf / tahomabd_0.ttf / TEMPSITC.TTF / VAGRoundedBT.ttf

Video
ID                                       : 1
Format                                   : AVC
Format/Info                              : Advanced Video Codec
Format profile                           : High@L3.1
Format settings                          : CABAC / 4 Ref Frames
Format settings, CABAC                   : Yes
Format settings, Reference frames        : 4 frames
Codec ID                                 : V_MPEG4/ISO/AVC
Duration                                 : 24 min 8 s
Bit rate mode                            : Constant
Bit rate                                 : 1 983 kb/s
Nominal bit rate                         : 6 000 kb/s
Width                                    : 1 280 pixels
Height                                   : 720 pixels
Display aspect ratio                     : 16:9
Frame rate mode                          : Constant
Frame rate                               : 24.000 FPS
Color space                              : YUV
Chroma subsampling                       : 4:2:0
Bit depth                                : 8 bits
Scan type                                : Progressive
Bits/(Pixel*Frame)                       : 0.090
Stream size                              : 342 MiB (81%)
Language                                 : Japanese
Default                                  : Yes
Forced                                   : No
Color range                              : Limited
Color primaries                          : BT.709
Transfer characteristics                 : BT.709
Matrix coefficients                      : BT.709

Audio #1
ID                                       : 2
Format                                   : AAC LC
Format/Info                              : Advanced Audio Codec Low Complexity
Codec ID                                 : A_AAC-2
Duration                                 : 24 min 8 s
Bit rate                                 : 192 kb/s
Channel(s)                               : 2 channels
Channel layout                           : L R
Sampling rate                            : 48.0 kHz
Frame rate                               : 46.875 FPS (1024 SPF)
Compression mode                         : Lossy
Stream size                              : 33.2 MiB (8%)
Language                                 : Japanese
Default                                  : Yes
Forced                                   : No

Audio #2
ID                                       : 3
Format                                   : E-AC-3
Format/Info                              : Enhanced AC-3
Commercial name                          : Dolby Digital Plus
Codec ID                                 : A_EAC3
Duration                                 : 24 min 8 s
Bit rate mode                            : Constant
Bit rate                                 : 224 kb/s
Channel(s)                               : 2 channels
Channel layout                           : L R
Sampling rate                            : 48.0 kHz
Frame rate                               : 31.250 FPS (1536 SPF)
Compression mode                         : Lossy
Stream size                              : 38.7 MiB (9%)
Language                                 : Japanese
Service kind                             : Complete Main
Default                                  : Yes
Forced                                   : No

Text #1
ID                                       : 4
Format                                   : ASS
Codec ID                                 : S_TEXT/ASS
Codec ID/Info                            : Advanced Sub Station Alpha
Duration                                 : 21 min 59 s
Bit rate                                 : 109 b/s
Count of elements                        : 348
Compression mode                         : Lossless
Stream size                              : 17.7 KiB (0%)
Title                                    : English
Language                                 : English
Default                                  : Yes
Forced                                   : No

Text #2
ID                                       : 5
Format                                   : ASS
Codec ID                                 : S_TEXT/ASS
Codec ID/Info                            : Advanced Sub Station Alpha
Duration                                 : 21 min 59 s
Bit rate                                 : 107 b/s
Count of elements                        : 348
Compression mode                         : Lossless
Stream size                              : 17.3 KiB (0%)
Title                                    : Spanish(Latin_America)
Language                                 : Spanish
Default                                  : No
Forced                                   : No

Other Files in this Torrent
[Erai-raws] Karakai Jouzu no Takagi-san 3 - 01 [720p][Multiple Subtitle][E01F8134].mkv
beta
Anime DDL+NZB mirror
Current Time: 24/02/2024 05:40



About/FAQs

Discord