Creditless OP-ED/[Beatrice-Raws] Made in Abyss (Creditless OP4) [BDRip 1920x1080 x264 FLAC].mkv


File Size241.1 MB (252,795,067 bytes)
DownloadClickNUpload | DiskoKosmiko | Go4Up | Jheberg | MultiUp | OpenLoad | Sendspace | SolidFiles | Upfile.mobi
HashesCRC32: F7707EB1, MD5: 2F08321106AF2F89045EF580B652AD58, SHA1: 7E868656E017559CB1FFC3ACC7D34873AB49239F, SHA256: 3B405FFAA0AEC06583A57303F6D4196B85F7B5AE1137817599143EC046D88764, ED2K: 0D533A9EFA17F7CC9ED32E16ED220E7D
Screenshots
screenshotscreenshot
Additional Info
General
Unique ID                                : 250796477100734573349473538543780201730 (0xBCADA4FF3B1700AC57A6BEE9EEED8502)
Complete name                            : [Beatrice-Raws] Made in Abyss (Creditless OP4) [BDRip 1920x1080 x264 FLAC].mkv
Format                                   : Matroska
Format version                           : Version 4 / Version 2
File size                                : 241 MiB
Duration                                 : 1 min 32 s
Overall bit rate mode                    : Variable
Overall bit rate                         : 22.0 Mb/s
Encoded date                             : UTC 2017-12-28 17:35:37
Writing application                      : mkvmerge v19.0.0 ('Brave Captain') 64-bit
Writing library                          : libebml v1.3.5 + libmatroska v1.4.8

Video
ID                                       : 1
Format                                   : AVC
Format/Info                              : Advanced Video Codec
Format profile                           : High 10@L5
Format settings, CABAC                   : Yes
Format settings, ReFrames                : 4 frames
Codec ID                                 : V_MPEG4/ISO/AVC
Duration                                 : 1 min 32 s
Bit rate                                 : 21.1 Mb/s
Width                                    : 1 920 pixels
Height                                   : 1 080 pixels
Display aspect ratio                     : 16:9
Frame rate mode                          : Constant
Frame rate                               : 23.976 (24000/1001) FPS
Color space                              : YUV
Chroma subsampling                       : 4:2:0
Bit depth                                : 10 bits
Scan type                                : Progressive
Bits/(Pixel*Frame)                       : 0.425
Stream size                              : 232 MiB (96%)
Title                                    : BDRip by Vladdrako
Writing library                          : x264 core 152 r2851M ba24899 (DJATOM's build)
Encoding settings                        : cabac=1 / ref=4 / deblock=1:1:-1 / analyse=0x3:0x113 / me=umh / subme=9 / psy=1 / psy_rd=1.00:0.00 / mixed_ref=1 / me_range=32 / chroma_me=1 / trellis=2 / 8x8dct=1 / cqm=0 / deadzone=21,11 / fast_pskip=1 / chroma_qp_offset=-2 / threads=34 / lookahead_threads=5 / sliced_threads=0 / nr=0 / decimate=1 / interlaced=0 / bluray_compat=0 / constrained_intra=0 / bframes=9 / b_pyramid=2 / b_adapt=2 / b_bias=0 / direct=1 / weightb=1 / open_gop=0 / weightp=2 / keyint=250 / keyint_min=23 / scenecut=40 / intra_refresh=0 / rc=crf / mbtree=0 / crf=15.0000 / qcomp=0.72 / qpmin=0 / qpmax=81 / qpstep=4 / ip_ratio=1.40 / pb_ratio=1.30 / aq=1:0.85
Language                                 : Japanese
Default                                  : Yes
Forced                                   : No
Color range                              : Limited
Color primaries                          : BT.709
Transfer characteristics                 : BT.709
Matrix coefficients                      : BT.709

Audio
ID                                       : 2
Format                                   : FLAC
Format/Info                              : Free Lossless Audio Codec
Codec ID                                 : A_FLAC
Duration                                 : 1 min 32 s
Bit rate mode                            : Variable
Bit rate                                 : 850 kb/s
Channel(s)                               : 2 channels
Channel positions                        : Front: L R
Sampling rate                            : 48.0 kHz
Frame rate                               : 11.727 FPS (4093 spf)
Bit depth                                : 16 bits
Stream size                              : 9.34 MiB (4%)
Title                                    : LPCM->FLAC
Writing library                          : libFLAC 1.3.2 (UTC 2017-01-01)
Language                                 : Japanese
Default                                  : Yes
Forced                                   : No

Other Files in this Torrent
Creditless OP-ED/[Beatrice-Raws] Made in Abyss (Creditless OP4) [BDRip 1920x1080 x264 FLAC].mkv
beta
Anime DDL+NZB mirror
Current Time: 21/06/2024 02:14



About/FAQs

Discord