[Commie] Free! Dive to the Future - 05 [8E6E9438].mkv


File Size322.5 MB (338,167,894 bytes)
DownloadClickNUpload | Go4Up | Jheberg | MultiUp | OpenLoad | SolidFiles | ZippyShare
Sendspace: Part1, Part2
HashesCRC32: 8E6E9438, MD5: 524A713AEB2F11DD24C69AE3A9E82FAA, SHA1: 2EB0E8CA3C6CB00E6B538F5871980F380CB315B1, SHA256: F5AE1CEE458AB16BF9170A53FF73191E200D980F21B4F8BE5A0435EB1C261FA8, ED2K: 281A23167448941793936A8BB39F62BB
Screenshots
screenshotscreenshotscreenshotscreenshotscreenshot
SubtitlesAll Attachments | eng [ASS]
Additional Info
General
Unique ID                                : 318434803437237805593558885260469513259 (0xEF904FF4B1A9549FCE59071B8D40AC2B)
Complete name                            : [Commie] Free! Dive to the Future - 05 [8E6E9438].mkv
Format                                   : Matroska
Format version                           : Version 4 / Version 2
File size                                : 323 MiB
Duration                                 : 23 min 40 s
Overall bit rate                         : 1 905 kb/s
Encoded date                             : UTC 2018-08-08 21:08:34
Writing application                      : mkvmerge v25.0.0 ('Prog Noir') 64-bit
Writing library                          : libebml v1.3.6 + libmatroska v1.4.9
Attachments                              : ClubTypeMercuriusMedium.ttf / ClubTypeMercuriusMedium_Italic.ttf / CrayonHand-Bold_0.ttf / daunpenh_0.ttf / EFFLB.TTF / FRABK.TTF / gm.ttf / MerriweatherSans-Bold.ttf / MrsEavRm.TTF / Quick Menu Boards.ttf / AIRSI.TTF / Arial Rounded MT.ttf

Video
ID                                       : 1
Format                                   : AVC
Format/Info                              : Advanced Video Codec
Format profile                           : High 10@L5
Format settings, CABAC                   : Yes
Format settings, ReFrames                : 16 frames
Codec ID                                 : V_MPEG4/ISO/AVC
Duration                                 : 23 min 40 s
Bit rate                                 : 1 763 kb/s
Width                                    : 1 280 pixels
Height                                   : 720 pixels
Display aspect ratio                     : 16:9
Frame rate mode                          : Constant
Frame rate                               : 23.976 (24000/1001) FPS
Color space                              : YUV
Chroma subsampling                       : 4:2:0
Bit depth                                : 10 bits
Scan type                                : Progressive
Bits/(Pixel*Frame)                       : 0.080
Stream size                              : 298 MiB (93%)
Writing library                          : x264 core 155 r2867+74 66b5600 t_mod_Custom_2 [10-bit@all X86_64]
Encoding settings                        : cabac=1 / ref=16 / deblock=1:0:0 / analyse=0x3:0x133 / me=umh / subme=10 / psy=1 / fade_compensate=0.70 / psy_rd=0.60:0.15 / mixed_ref=1 / me_range=24 / chroma_me=1 / trellis=2 / 8x8dct=1 / cqm=0 / deadzone=21,11 / fast_pskip=1 / chroma_qp_offset=-3 / threads=12 / lookahead_threads=3 / sliced_threads=0 / nr=0 / decimate=1 / interlaced=0 / bluray_compat=0 / constrained_intra=0 / fgo=0 / bframes=10 / b_pyramid=2 / b_adapt=2 / b_bias=0 / direct=3 / weightb=1 / open_gop=0 / weightp=2 / keyint=250 / keyint_min=23 / scenecut=40 / intra_refresh=0 / rc_lookahead=60 / rc=crf / mbtree=1 / crf=18.0000 / qcomp=0.70 / qpmin=0:0:0 / qpmax=81:81:81 / qpstep=4 / ip_ratio=1.40 / aq=3:0.80 / aq-sensitivity=10.00 / aq-factor=1.00:1.00:1.00 / aq2=0 / aq3=0
Language                                 : English
Default                                  : Yes
Forced                                   : No

Audio
ID                                       : 2
Format                                   : AAC
Format/Info                              : Advanced Audio Codec
Format profile                           : LC
Codec ID                                 : A_AAC
Duration                                 : 23 min 40 s
Bit rate                                 : 128 kb/s
Channel(s)                               : 2 channels
Channel positions                        : Front: L R
Sampling rate                            : 44.1 kHz
Frame rate                               : 43.066 FPS (1024 spf)
Compression mode                         : Lossy
Stream size                              : 21.7 MiB (7%)
Language                                 : Japanese
Default                                  : Yes
Forced                                   : No

Text
ID                                       : 3
Format                                   : ASS
Codec ID                                 : S_TEXT/ASS
Codec ID/Info                            : Advanced Sub Station Alpha
Duration                                 : 23 min 36 s
Bit rate                                 : 278 b/s
Count of elements                        : 603
Compression mode                         : Lossless
Stream size                              : 48.1 KiB (0%)
Language                                 : English
Default                                  : Yes
Forced                                   : No

Menu
00:00:00.033                             : en:Intro
00:01:06.960                             : en:OP
00:02:37.010                             : en:Episode
00:22:02.960                             : en:Preview
00:22:12.560                             : en:ED

Other Files in this Torrent
[Commie] Free! Dive to the Future - 05 [8E6E9438].mkv
beta
Anime DDL+NZB mirror
Current Time: 24/10/2020 00:00



About/FAQs