[Commie] Free! Dive to the Future - 01 [67010836].mkv


File Size357.8 MB (375,168,153 bytes)
DownloadClickNUpload | Go4Up | Jheberg | MultiUp | OpenLoad | SolidFiles | ZippyShare
Sendspace: Part1, Part2
HashesCRC32: 67010836, MD5: 0493921332AE071ADE867DC3F79B0E40, SHA1: 872B61758044DBB885D4F0A60C4A1E9730D16DD1, SHA256: 1ED527AE3A69E96147A4671A1A11E5E3EC20C7A8BA14A14182AEFE25B08AC267, ED2K: 5A9902DE5EF4EC75F82DD8FEE338D0C5
Screenshots
screenshotscreenshotscreenshotscreenshotscreenshot
SubtitlesAll Attachments | eng [ASS]
Additional Info
General
Unique ID                                : 99212961653053690824501317073307644355 (0x4AA3B8ABD41CFF44E7CE072E0C7731C3)
Complete name                            : [Commie] Free! Dive to the Future - 01 [67010836].mkv
Format                                   : Matroska
Format version                           : Version 4 / Version 2
File size                                : 358 MiB
Duration                                 : 23 min 40 s
Overall bit rate                         : 2 113 kb/s
Encoded date                             : UTC 2018-07-12 16:03:57
Writing application                      : mkvmerge v24.0.0 ('Beyond The Pale') 64-bit
Writing library                          : libebml v1.3.6 + libmatroska v1.4.9
Attachments                              : ClubTypeMercuriusMedium.ttf / ClubTypeMercuriusMedium_Italic.ttf / daunpenh_0.ttf / DeBorstel Brush-Reduced.ttf / Dry Brush.ttf / EFFLB.TTF / FRABK.TTF / FRADM.TTF / Jerry_B4s_handwriting.ttf / MerriweatherSans-Bold.ttf / Polo Brush.ttf

Video
ID                                       : 1
Format                                   : AVC
Format/Info                              : Advanced Video Codec
Format profile                           : High 10@L5
Format settings, CABAC                   : Yes
Format settings, ReFrames                : 16 frames
Codec ID                                 : V_MPEG4/ISO/AVC
Duration                                 : 23 min 40 s
Bit rate                                 : 1 974 kb/s
Width                                    : 1 280 pixels
Height                                   : 720 pixels
Display aspect ratio                     : 16:9
Frame rate mode                          : Constant
Frame rate                               : 23.976 (24000/1001) FPS
Color space                              : YUV
Chroma subsampling                       : 4:2:0
Bit depth                                : 10 bits
Scan type                                : Progressive
Bits/(Pixel*Frame)                       : 0.089
Stream size                              : 334 MiB (93%)
Writing library                          : x264 core 155 r2867+74 66b5600 t_mod_Custom_2 [10-bit@all X86_64]
Encoding settings                        : cabac=1 / ref=16 / deblock=1:0:0 / analyse=0x3:0x133 / me=umh / subme=10 / psy=1 / fade_compensate=0.70 / psy_rd=0.60:0.15 / mixed_ref=1 / me_range=24 / chroma_me=1 / trellis=2 / 8x8dct=1 / cqm=0 / deadzone=21,11 / fast_pskip=1 / chroma_qp_offset=-3 / threads=12 / lookahead_threads=3 / sliced_threads=0 / nr=0 / decimate=1 / interlaced=0 / bluray_compat=0 / constrained_intra=0 / fgo=0 / bframes=10 / b_pyramid=2 / b_adapt=2 / b_bias=0 / direct=3 / weightb=1 / open_gop=0 / weightp=2 / keyint=250 / keyint_min=23 / scenecut=40 / intra_refresh=0 / rc_lookahead=60 / rc=crf / mbtree=1 / crf=18.0000 / qcomp=0.70 / qpmin=0:0:0 / qpmax=81:81:81 / qpstep=4 / ip_ratio=1.40 / aq=3:0.80 / aq-sensitivity=10.00 / aq-factor=1.00:1.00:1.00 / aq2=0 / aq3=0
Language                                 : English
Default                                  : Yes
Forced                                   : No

Audio
ID                                       : 2
Format                                   : AAC
Format/Info                              : Advanced Audio Codec
Format profile                           : LC
Codec ID                                 : A_AAC
Duration                                 : 23 min 40 s
Bit rate                                 : 128 kb/s
Channel(s)                               : 2 channels
Channel positions                        : Front: L R
Sampling rate                            : 44.1 kHz
Frame rate                               : 43.066 FPS (1024 spf)
Compression mode                         : Lossy
Stream size                              : 21.7 MiB (6%)
Language                                 : Japanese
Default                                  : Yes
Forced                                   : No

Text
ID                                       : 3
Format                                   : ASS
Codec ID                                 : S_TEXT/ASS
Codec ID/Info                            : Advanced Sub Station Alpha
Duration                                 : 23 min 29 s
Bit rate                                 : 516 b/s
Count of elements                        : 967
Compression mode                         : Lossless
Stream size                              : 88.9 KiB (0%)
Language                                 : English
Default                                  : Yes
Forced                                   : No

Menu
00:00:00.033                             : en:Intro
00:02:34.000                             : en:OP
00:04:03.970                             : en:Episode
00:22:03.050                             : en:Preview
00:22:12.600                             : en:ED

Other Files in this Torrent
[Commie] Free! Dive to the Future - 01 [67010836].mkv
beta
Anime DDL+NZB mirror
Current Time: 24/10/2020 01:11



About/FAQs