[Commie] Free! Dive to the Future - 02 [F967B71F].mkv


File Size331.5 MB (347,652,534 bytes)
DownloadClickNUpload | Go4Up | Jheberg | MultiUp | OpenLoad | SolidFiles | ZippyShare
Sendspace: Part1, Part2
HashesCRC32: F967B71F, MD5: 315F8ED7CEEBD1F05EB680C0FA69D9AD, SHA1: 0A3239273CC47A5EBBCAD2372339B17449883640, SHA256: 046843244CA5536D443031236497B526BBB46F01FFB36F4BA7FDA25079A328C8, ED2K: 274BAF35594B80531A740A9018513945
Screenshots
screenshotscreenshotscreenshotscreenshotscreenshot
SubtitlesAll Attachments | eng [ASS]
Additional Info
General
Unique ID                                : 49007057812509030850434501247670162734 (0x24DE6A7FCFA4DC522A18C46E47A0152E)
Complete name                            : [Commie] Free! Dive to the Future - 02 [F967B71F].mkv
Format                                   : Matroska
Format version                           : Version 4 / Version 2
File size                                : 332 MiB
Duration                                 : 23 min 40 s
Overall bit rate                         : 1 959 kb/s
Encoded date                             : UTC 2018-07-18 23:15:09
Writing application                      : mkvmerge v25.0.0 ('Prog Noir') 64-bit
Writing library                          : libebml v1.3.6 + libmatroska v1.4.9
Attachments                              : ClubTypeMercuriusMedium_Italic.ttf / daunpenh_0.ttf / EFFLB.TTF / FRABK.TTF / HAPPY_HELL_0.TTF / MerriweatherSans-Bold.ttf / MUSICNET.ttf / ufonts.com_mercury-text-g4-roman.ttf / ClubTypeMercuriusMedium.ttf

Video
ID                                       : 1
Format                                   : AVC
Format/Info                              : Advanced Video Codec
Format profile                           : High 10@L5
Format settings, CABAC                   : Yes
Format settings, ReFrames                : 16 frames
Codec ID                                 : V_MPEG4/ISO/AVC
Duration                                 : 23 min 40 s
Bit rate                                 : 1 824 kb/s
Width                                    : 1 280 pixels
Height                                   : 720 pixels
Display aspect ratio                     : 16:9
Frame rate mode                          : Constant
Frame rate                               : 23.976 (24000/1001) FPS
Color space                              : YUV
Chroma subsampling                       : 4:2:0
Bit depth                                : 10 bits
Scan type                                : Progressive
Bits/(Pixel*Frame)                       : 0.083
Stream size                              : 309 MiB (93%)
Writing library                          : x264 core 155 r2867+74 66b5600 t_mod_Custom_2 [10-bit@all X86_64]
Encoding settings                        : cabac=1 / ref=16 / deblock=1:0:0 / analyse=0x3:0x133 / me=umh / subme=10 / psy=1 / fade_compensate=0.70 / psy_rd=0.60:0.15 / mixed_ref=1 / me_range=24 / chroma_me=1 / trellis=2 / 8x8dct=1 / cqm=0 / deadzone=21,11 / fast_pskip=1 / chroma_qp_offset=-3 / threads=12 / lookahead_threads=3 / sliced_threads=0 / nr=0 / decimate=1 / interlaced=0 / bluray_compat=0 / constrained_intra=0 / fgo=0 / bframes=10 / b_pyramid=2 / b_adapt=2 / b_bias=0 / direct=3 / weightb=1 / open_gop=0 / weightp=2 / keyint=250 / keyint_min=23 / scenecut=40 / intra_refresh=0 / rc_lookahead=60 / rc=crf / mbtree=1 / crf=18.0000 / qcomp=0.70 / qpmin=0:0:0 / qpmax=81:81:81 / qpstep=4 / ip_ratio=1.40 / aq=3:0.80 / aq-sensitivity=10.00 / aq-factor=1.00:1.00:1.00 / aq2=0 / aq3=0
Language                                 : English
Default                                  : Yes
Forced                                   : No

Audio
ID                                       : 2
Format                                   : AAC
Format/Info                              : Advanced Audio Codec
Format profile                           : LC
Codec ID                                 : A_AAC
Duration                                 : 23 min 40 s
Bit rate                                 : 128 kb/s
Channel(s)                               : 2 channels
Channel positions                        : Front: L R
Sampling rate                            : 44.1 kHz
Frame rate                               : 43.066 FPS (1024 spf)
Compression mode                         : Lossy
Stream size                              : 21.7 MiB (7%)
Language                                 : Japanese
Default                                  : Yes
Forced                                   : No

Text
ID                                       : 3
Format                                   : ASS
Codec ID                                 : S_TEXT/ASS
Codec ID/Info                            : Advanced Sub Station Alpha
Duration                                 : 23 min 36 s
Bit rate                                 : 315 b/s
Count of elements                        : 630
Compression mode                         : Lossless
Stream size                              : 54.5 KiB (0%)
Language                                 : English
Default                                  : Yes
Forced                                   : No

Menu
00:00:00.033                             : en:Intro
00:00:39.010                             : en:OP
00:02:08.980                             : en:Episode
00:22:02.960                             : en:Preview
00:22:12.560                             : en:ED

Other Files in this Torrent
[Commie] Free! Dive to the Future - 02 [F967B71F].mkv
beta
Anime DDL+NZB mirror
Current Time: 24/10/2020 01:06



About/FAQs