[Commie] Free! Dive to the Future - 11 [853A1FA6].mkv


File Size309.1 MB (324,148,282 bytes)
DownloadClickNUpload | Go4Up | Jheberg | MultiUp | OpenLoad | SolidFiles | ZippyShare
Sendspace: Part1, Part2
HashesCRC32: 853A1FA6, MD5: FF38E81695F20FFB51F74E350747AD9B, SHA1: DD89B0DFE93171FA1704A959B9E8C1AF0AB203AB, SHA256: 46C65BA2C2C603659CE08BB70B4407F023FDC2B4E6F6A8551ED979895DBA33B8, ED2K: F31AF71C92C00DF8046566A301165DAB
Screenshots
screenshotscreenshotscreenshotscreenshotscreenshot
SubtitlesAll Attachments | eng [ASS]
Additional Info
General
Unique ID                                : 79702653621434305964512596443275231266 (0x3BF62C37BFC7D198DEC4397B5DBC8022)
Complete name                            : [Commie] Free! Dive to the Future - 11 [853A1FA6].mkv
Format                                   : Matroska
Format version                           : Version 4 / Version 2
File size                                : 309 MiB
Duration                                 : 23 min 40 s
Overall bit rate                         : 1 826 kb/s
Encoded date                             : UTC 2018-09-19 20:59:13
Writing application                      : mkvmerge v26.0.0 ('In The Game') 64-bit
Writing library                          : libebml v1.3.6 + libmatroska v1.4.9
Attachments                              : EFFLB.TTF / FRADM.TTF / framd_0.ttf / LBRITED.TTF / MerriweatherSans-Bold.ttf / MUSICNET.ttf / Painted Lady.otf / Brush Strokes_6.ttf / ClubTypeMercuriusMedium.ttf / ClubTypeMercuriusMedium_Italic.ttf / daunpenh_0.ttf

Video
ID                                       : 1
Format                                   : AVC
Format/Info                              : Advanced Video Codec
Format profile                           : High 10@L5
Format settings, CABAC                   : Yes
Format settings, ReFrames                : 16 frames
Codec ID                                 : V_MPEG4/ISO/AVC
Duration                                 : 23 min 40 s
Bit rate                                 : 1 689 kb/s
Width                                    : 1 280 pixels
Height                                   : 720 pixels
Display aspect ratio                     : 16:9
Frame rate mode                          : Constant
Frame rate                               : 23.976 (24000/1001) FPS
Color space                              : YUV
Chroma subsampling                       : 4:2:0
Bit depth                                : 10 bits
Scan type                                : Progressive
Bits/(Pixel*Frame)                       : 0.076
Stream size                              : 286 MiB (92%)
Writing library                          : x264 core 155 r2867+74 66b5600 t_mod_Custom_2 [10-bit@all X86_64]
Encoding settings                        : cabac=1 / ref=16 / deblock=1:0:0 / analyse=0x3:0x133 / me=umh / subme=10 / psy=1 / fade_compensate=0.70 / psy_rd=0.60:0.15 / mixed_ref=1 / me_range=24 / chroma_me=1 / trellis=2 / 8x8dct=1 / cqm=0 / deadzone=21,11 / fast_pskip=1 / chroma_qp_offset=-3 / threads=12 / lookahead_threads=3 / sliced_threads=0 / nr=0 / decimate=1 / interlaced=0 / bluray_compat=0 / constrained_intra=0 / fgo=0 / bframes=10 / b_pyramid=2 / b_adapt=2 / b_bias=0 / direct=3 / weightb=1 / open_gop=0 / weightp=2 / keyint=250 / keyint_min=23 / scenecut=40 / intra_refresh=0 / rc_lookahead=60 / rc=crf / mbtree=1 / crf=18.0000 / qcomp=0.70 / qpmin=0:0:0 / qpmax=81:81:81 / qpstep=4 / ip_ratio=1.40 / aq=3:0.80 / aq-sensitivity=10.00 / aq-factor=1.00:1.00:1.00 / aq2=0 / aq3=0
Language                                 : English
Default                                  : Yes
Forced                                   : No

Audio
ID                                       : 2
Format                                   : AAC
Format/Info                              : Advanced Audio Codec
Format profile                           : LC
Codec ID                                 : A_AAC
Duration                                 : 23 min 40 s
Bit rate                                 : 128 kb/s
Channel(s)                               : 2 channels
Channel positions                        : Front: L R
Sampling rate                            : 44.1 kHz
Frame rate                               : 43.066 FPS (1024 spf)
Compression mode                         : Lossy
Stream size                              : 21.7 MiB (7%)
Language                                 : Japanese
Default                                  : Yes
Forced                                   : No

Text
ID                                       : 3
Format                                   : ASS
Codec ID                                 : S_TEXT/ASS
Codec ID/Info                            : Advanced Sub Station Alpha
Duration                                 : 23 min 35 s
Bit rate                                 : 1 001 b/s
Count of elements                        : 1043
Compression mode                         : Lossless
Stream size                              : 173 KiB (0%)
Language                                 : English
Default                                  : Yes
Forced                                   : No

Menu
00:00:00.033                             : en:Intro
00:01:00.950                             : en:OP
00:02:31.000                             : en:Episode
00:22:03.000                             : en:Preview
00:22:12.600                             : en:ED

Other Files in this Torrent
[Commie] Free! Dive to the Future - 11 [853A1FA6].mkv
beta
Anime DDL+NZB mirror
Current Time: 24/10/2020 00:38



About/FAQs