[Cleo]Log_Horizon_2_-_04_(Dual Audio_10bit_720p).mkv


File Size137.3 MB (143,974,144 bytes)
DownloadClickNUpload | Go4Up | Jheberg | MultiUp
  • ClickNupload
  • Fichier
  • Filerio
  • Free
  • Fufox
  • HugeFiles
  • Mightyupload
  • ToutBox
  • Turbobit
  • UpToBox
  • Uplea
  • UploadBaz
  • Uploadable
  • Uploaded
  • Uppit
  • Userscloud
  • ZippyShare
| OpenLoad | Sendspace | SolidFiles
HashesCRC32: 2A1C0436, MD5: 7D18C429FD6072A9967BEC068449FC80, SHA1: 8A89FEF3C6D6C5E3AD1B0BC19353290A04C6AB6D, SHA256: 187320F99AC6A8EA44F962B1FEB72A663AD32AB84476FD53B5A5F7E105814337, ED2K: E05580F4056C9358947BDFBCB1DBA74F
Screenshots
screenshotscreenshotscreenshotscreenshotscreenshot
SubtitlesAll Attachments | Styled Subtitle (Commie) [eng, ASS]
Additional Info
General
Unique ID                                : 200060317406251593768749387361929953609 (0x968237316808568F9C5481A2BAA08149)
Complete name                            : [Cleo]Log_Horizon_2_-_04_(Dual Audio_10bit_720p).mkv
Format                                   : Matroska
Format version                           : Version 4 / Version 2
File size                                : 137 MiB
Duration                                 : 24 min 32 s
Overall bit rate                         : 782 kb/s
Movie name                               : Encoded By Cleo
Encoded date                             : UTC 2016-06-28 01:44:44
Writing application                      : mkvmerge v9.2.0 ('Photograph') 64bit
Writing library                          : libebml v1.3.3 + libmatroska v1.4.4
Attachments                              : CommieSans-Medium_0.ttf / CommieSans-Medium_1.ttf / CommieSans-MediumIt.ttf / CommieSans-MediumIt_0.ttf / CREABBRG.ttf / DFGTFLeisho-W9-Kampfer.ttf / FOTCometStdStripped-Bold.otf / Genesis Sans W02 Bold.ttf / H_CRD__.TTF / KozMinPr6N-Bold-En_0.otf / LEHN236.ttf / Top Secret.ttf / AGENCY FB BOLD.TTF / AGENCYR.TTF / AGENCYR_1.TTF / Brushcut.ttf / CASTLEB.TTF / CommieSans-Medium.ttf / Montara-Gothic TR.otf / Montara-Gothic.otf / Plane Crash.ttf / SF Square Root Extended.ttf / timesnar.ttf / ZinHenaBokuryu-CRF.ttf / AIRSI__.TTF / ERASDEMI.TTF / KhmerUI.ttf / OpenSans-Semibold.ttf

Video
ID                                       : 1
Format                                   : AVC
Format/Info                              : Advanced Video Codec
Format profile                           : High 10@L4.1
Format settings, CABAC                   : Yes
Format settings, ReFrames                : 9 frames
Codec ID                                 : V_MPEG4/ISO/AVC
Duration                                 : 24 min 32 s
Bit rate                                 : 553 kb/s
Width                                    : 1 280 pixels
Height                                   : 720 pixels
Display aspect ratio                     : 16:9
Frame rate mode                          : Variable
Frame rate                               : 23.976 (23976/1000) FPS
Color space                              : YUV
Chroma subsampling                       : 4:2:0
Bit depth                                : 10 bits
Scan type                                : Progressive
Bits/(Pixel*Frame)                       : 0.025
Stream size                              : 97.1 MiB (71%)
Writing library                          : x264 core 142 r2409+42 04be48a tMod [10-bit@all X86_64]
Encoding settings                        : cabac=1 / ref=9 / deblock=1:-1:-1 / analyse=0x3:0x133 / me=umh / subme=10 / psy=1 / fade_compensate=0.00 / psy_rd=0.40:0.60 / mixed_ref=1 / me_range=24 / chroma_me=1 / trellis=2 / 8x8dct=1 / cqm=0 / deadzone=21,11 / fast_pskip=1 / chroma_qp_offset=-4 / threads=8 / lookahead_threads=1 / sliced_threads=0 / nr=0 / decimate=1 / interlaced=0 / bluray_compat=0 / constrained_intra=0 / fgo=0 / bframes=8 / b_pyramid=2 / b_adapt=2 / b_bias=0 / direct=3 / weightb=1 / open_gop=0 / weightp=2 / keyint=250 / keyint_min=12 / scenecut=45 / intra_refresh=0 / rc_lookahead=40 / rc=crf / mbtree=1 / crf=24.0000 / qcomp=0.60 / qpmin=10:10:10 / qpmax=51:51:51 / qpstep=4 / ip_ratio=1.40 / aq=3:0.80 / aq-sensitivity=10.00 / aq-factor=1.00:1.00:1.00 / aq2=0 / aq3=0
Language                                 : English
Default                                  : Yes
Forced                                   : No
Color range                              : Limited
Matrix coefficients                      : BT.709

Audio #1
ID                                       : 2
Format                                   : AAC
Format/Info                              : Advanced Audio Codec
Format profile                           : Main
Codec ID                                 : A_AAC
Duration                                 : 24 min 32 s
Bit rate                                 : 77.3 kb/s
Channel(s)                               : 2 channels
Channel positions                        : Front: L R
Sampling rate                            : 48.0 kHz
Frame rate                               : 46.875 FPS (1024 spf)
Compression mode                         : Lossy
Stream size                              : 13.6 MiB (10%)
Language                                 : Japanese
Default                                  : No
Forced                                   : No

Audio #2
ID                                       : 3
Format                                   : AAC
Format/Info                              : Advanced Audio Codec
Format profile                           : Main
Codec ID                                 : A_AAC
Duration                                 : 24 min 31 s
Bit rate                                 : 77.3 kb/s
Channel(s)                               : 2 channels
Channel positions                        : Front: L R
Sampling rate                            : 48.0 kHz
Frame rate                               : 46.875 FPS (1024 spf)
Compression mode                         : Lossy
Stream size                              : 13.6 MiB (10%)
Language                                 : English
Default                                  : Yes
Forced                                   : No

Text
ID                                       : 4
Format                                   : ASS
Codec ID                                 : S_TEXT/ASS
Codec ID/Info                            : Advanced Sub Station Alpha
Duration                                 : 24 min 28 s
Bit rate                                 : 728 b/s
Count of elements                        : 1186
Compression mode                         : Lossless
Stream size                              : 131 KiB (0%)
Title                                    : Styled Subtitle (Commie)
Language                                 : English
Default                                  : Yes
Forced                                   : No

Menu
00:00:00.000                             : en:Prologue
00:00:36.995                             : en:Opening
00:02:06.960                             : en:Part A
00:10:18.960                             : en:Part B
00:22:34.978                             : en:Ending
00:24:04.943                             : en:Preview

Other Files in this Torrent
[Cleo]Log_Horizon_2_-_04_(Dual Audio_10bit_720p).mkv
beta
Anime DDL+NZB mirror
Current Time: 19/07/2024 15:17



About/FAQs

Discord