[Cleo]Log_Horizon_2_-_05_(Dual Audio_10bit_720p).mkv


File Size127.3 MB (133,484,457 bytes)
DownloadClickNUpload | Go4Up | Jheberg | MultiUp
  • ClickNupload
  • Fichier
  • Filerio
  • Free
  • Fufox
  • HugeFiles
  • Mightyupload
  • ToutBox
  • Turbobit
  • UpToBox
  • Uplea
  • UploadBaz
  • Uploadable
  • Uploaded
  • Uppit
  • Userscloud
  • ZippyShare
| OpenLoad | Sendspace | SolidFiles
HashesCRC32: 055E3356, MD5: B4E2B747E917E1A9C251838573BFBFA0, SHA1: 0C07A92DCC086B7D896A2E9EFAAAB0C1EC3F6562, SHA256: 00AB70D6F6BAC372424FBA63BE1FD4DABC0BA68600412200390C8FFBB2220101, ED2K: 2A96EC01F8FCB770BEEA7B42A80A50A3
Screenshots
screenshotscreenshotscreenshotscreenshotscreenshot
SubtitlesAll Attachments | Styled Subtitle (Commie) [eng, ASS]
Additional Info
General
Unique ID                                : 174102632855301337219097368787978790109 (0x82FAF288E3B70AB38DB2F58AFBDBA4DD)
Complete name                            : [Cleo]Log_Horizon_2_-_05_(Dual Audio_10bit_720p).mkv
Format                                   : Matroska
Format version                           : Version 4 / Version 2
File size                                : 127 MiB
Duration                                 : 24 min 33 s
Overall bit rate                         : 725 kb/s
Movie name                               : Encoded By Cleo
Encoded date                             : UTC 2016-06-28 01:45:38
Writing application                      : mkvmerge v9.2.0 ('Photograph') 64bit
Writing library                          : libebml v1.3.3 + libmatroska v1.4.4
Attachments                              : CommieSans-MediumIt_0.ttf / Complete in Him_0.ttf / CREABBRG.ttf / DFGTFLeisho-W9-Kampfer.ttf / FOTCometStdStripped-Bold.otf / Genesis Sans W02 Bold.ttf / H_CRD__.TTF / KozMinPr6N-Bold-En_0.otf / LEHN236.ttf / Top Secret.ttf / AGENCY FB BOLD.TTF / AGENCYR.TTF / AGENCYR_1.TTF / bluehigl_0.ttf / Brushcut.ttf / CASTLEB.TTF / CommieSans-Medium.ttf / CommieSans-Medium_0.ttf / CommieSans-Medium_1.ttf / CommieSans-MediumIt.ttf / Montara-Gothic.otf / Plane Crash.ttf / SF Square Root Extended.ttf / timesnar.ttf / ZinHenaBokuryu-CRF.ttf / AIRSI__.TTF / ERASDEMI.TTF / KhmerUI.ttf / Montara-Gothic TR.otf / OpenSans-Semibold.ttf

Video
ID                                       : 1
Format                                   : AVC
Format/Info                              : Advanced Video Codec
Format profile                           : High 10@L4.1
Format settings, CABAC                   : Yes
Format settings, ReFrames                : 9 frames
Codec ID                                 : V_MPEG4/ISO/AVC
Duration                                 : 24 min 32 s
Bit rate                                 : 496 kb/s
Width                                    : 1 280 pixels
Height                                   : 720 pixels
Display aspect ratio                     : 16:9
Frame rate mode                          : Variable
Frame rate                               : 23.976 (23976/1000) FPS
Color space                              : YUV
Chroma subsampling                       : 4:2:0
Bit depth                                : 10 bits
Scan type                                : Progressive
Bits/(Pixel*Frame)                       : 0.022
Stream size                              : 87.1 MiB (68%)
Writing library                          : x264 core 142 r2409+42 04be48a tMod [10-bit@all X86_64]
Encoding settings                        : cabac=1 / ref=9 / deblock=1:-1:-1 / analyse=0x3:0x133 / me=umh / subme=10 / psy=1 / fade_compensate=0.00 / psy_rd=0.40:0.60 / mixed_ref=1 / me_range=24 / chroma_me=1 / trellis=2 / 8x8dct=1 / cqm=0 / deadzone=21,11 / fast_pskip=1 / chroma_qp_offset=-4 / threads=8 / lookahead_threads=1 / sliced_threads=0 / nr=0 / decimate=1 / interlaced=0 / bluray_compat=0 / constrained_intra=0 / fgo=0 / bframes=8 / b_pyramid=2 / b_adapt=2 / b_bias=0 / direct=3 / weightb=1 / open_gop=0 / weightp=2 / keyint=250 / keyint_min=12 / scenecut=45 / intra_refresh=0 / rc_lookahead=40 / rc=crf / mbtree=1 / crf=25.0000 / qcomp=0.60 / qpmin=10:10:10 / qpmax=51:51:51 / qpstep=4 / ip_ratio=1.40 / aq=3:0.80 / aq-sensitivity=10.00 / aq-factor=1.00:1.00:1.00 / aq2=0 / aq3=0
Language                                 : English
Default                                  : Yes
Forced                                   : No
Color range                              : Limited
Matrix coefficients                      : BT.709

Audio #1
ID                                       : 2
Format                                   : AAC
Format/Info                              : Advanced Audio Codec
Format profile                           : Main
Codec ID                                 : A_AAC
Duration                                 : 24 min 32 s
Bit rate                                 : 77.3 kb/s
Channel(s)                               : 2 channels
Channel positions                        : Front: L R
Sampling rate                            : 48.0 kHz
Frame rate                               : 46.875 FPS (1024 spf)
Compression mode                         : Lossy
Stream size                              : 13.6 MiB (11%)
Language                                 : Japanese
Default                                  : No
Forced                                   : No

Audio #2
ID                                       : 3
Format                                   : AAC
Format/Info                              : Advanced Audio Codec
Format profile                           : Main
Codec ID                                 : A_AAC
Duration                                 : 24 min 31 s
Bit rate                                 : 77.3 kb/s
Channel(s)                               : 2 channels
Channel positions                        : Front: L R
Sampling rate                            : 48.0 kHz
Frame rate                               : 46.875 FPS (1024 spf)
Compression mode                         : Lossy
Stream size                              : 13.6 MiB (11%)
Language                                 : English
Default                                  : Yes
Forced                                   : No

Text
ID                                       : 4
Format                                   : ASS
Codec ID                                 : S_TEXT/ASS
Codec ID/Info                            : Advanced Sub Station Alpha
Duration                                 : 24 min 32 s
Bit rate                                 : 433 b/s
Count of elements                        : 842
Compression mode                         : Lossless
Stream size                              : 77.9 KiB (0%)
Title                                    : Styled Subtitle (Commie)
Language                                 : English
Default                                  : Yes
Forced                                   : No

Menu
00:00:01.000                             : en:Prologue
00:01:02.978                             : en:Opening
00:02:32.985                             : en:Part A
00:11:12.965                             : en:Part B
00:22:35.978                             : en:Ending
00:24:05.943                             : en:Preview

Other Files in this Torrent
[Cleo]Log_Horizon_2_-_05_(Dual Audio_10bit_720p).mkv
beta
Anime DDL+NZB mirror
Current Time: 19/07/2024 15:38



About/FAQs

Discord