[Cleo]Log_Horizon_2_-_17_(Dual Audio_10bit_720p).mkv


File Size125.1 MB (131,177,213 bytes)
DownloadClickNUpload | Go4Up | Jheberg | MultiUp
  • ClickNupload
  • Fichier
  • Filerio
  • Free
  • Fufox
  • HugeFiles
  • Mightyupload
  • ToutBox
  • Turbobit
  • UpToBox
  • Uplea
  • UploadBaz
  • Uploadable
  • Uploaded
  • Uppit
  • Userscloud
  • ZippyShare
| OpenLoad | Sendspace | SolidFiles
HashesCRC32: 6E755FC5, MD5: F26D915540319F904E018AA493E1DFB7, SHA1: 36A69D307F1F8039052C4E34F86D8C743C7DA8D2, SHA256: 52E396354F9BB37A4E20C4B4AEE200CB8DCCEAFCFBB5980C07AC4F78853A41D8, ED2K: F7B95AB386F8E6F685A9171BAF3B7305
Screenshots
screenshotscreenshotscreenshotscreenshotscreenshot
SubtitlesAll Attachments | Styled Subtitle (Commie) [eng, ASS]
Additional Info
General
Unique ID                                : 253486882739035063435315437273108564948 (0xBEB3CC3C7778857CA9ABCCA9C7D9CBD4)
Complete name                            : [Cleo]Log_Horizon_2_-_17_(Dual Audio_10bit_720p).mkv
Format                                   : Matroska
Format version                           : Version 4 / Version 2
File size                                : 125 MiB
Duration                                 : 24 min 32 s
Overall bit rate                         : 712 kb/s
Movie name                               : Encoded By Cleo
Encoded date                             : UTC 2016-06-28 02:38:18
Writing application                      : mkvmerge v9.2.0 ('Photograph') 64bit
Writing library                          : libebml v1.3.3 + libmatroska v1.4.4
Attachments                              : FOTCometStdStripped-Bold.otf / KozMinPr6N-Bold-En.otf / AGENCYR.TTF / CommieSans-Medium.ttf / CommieSans-MediumIt.ttf / OpenSans-Semibold.ttf

Video
ID                                       : 1
Format                                   : AVC
Format/Info                              : Advanced Video Codec
Format profile                           : High 10@L4.1
Format settings, CABAC                   : Yes
Format settings, ReFrames                : 9 frames
Codec ID                                 : V_MPEG4/ISO/AVC
Duration                                 : 24 min 31 s
Bit rate                                 : 508 kb/s
Width                                    : 1 280 pixels
Height                                   : 720 pixels
Display aspect ratio                     : 16:9
Frame rate mode                          : Variable
Frame rate                               : 23.976 (23976/1000) FPS
Color space                              : YUV
Chroma subsampling                       : 4:2:0
Bit depth                                : 10 bits
Scan type                                : Progressive
Bits/(Pixel*Frame)                       : 0.023
Stream size                              : 89.1 MiB (71%)
Writing library                          : x264 core 142 r2409+42 04be48a tMod [10-bit@all X86_64]
Encoding settings                        : cabac=1 / ref=9 / deblock=1:-1:-1 / analyse=0x3:0x133 / me=umh / subme=10 / psy=1 / fade_compensate=0.00 / psy_rd=0.40:0.60 / mixed_ref=1 / me_range=24 / chroma_me=1 / trellis=2 / 8x8dct=1 / cqm=0 / deadzone=21,11 / fast_pskip=1 / chroma_qp_offset=-4 / threads=8 / lookahead_threads=1 / sliced_threads=0 / nr=0 / decimate=1 / interlaced=0 / bluray_compat=0 / constrained_intra=0 / fgo=0 / bframes=8 / b_pyramid=2 / b_adapt=2 / b_bias=0 / direct=3 / weightb=1 / open_gop=0 / weightp=2 / keyint=250 / keyint_min=12 / scenecut=45 / intra_refresh=0 / rc_lookahead=40 / rc=crf / mbtree=1 / crf=24.0000 / qcomp=0.60 / qpmin=10:10:10 / qpmax=51:51:51 / qpstep=4 / ip_ratio=1.40 / aq=3:0.80 / aq-sensitivity=10.00 / aq-factor=1.00:1.00:1.00 / aq2=0 / aq3=0
Language                                 : English
Default                                  : Yes
Forced                                   : No
Color range                              : Limited
Matrix coefficients                      : BT.709

Audio #1
ID                                       : 2
Format                                   : AAC
Format/Info                              : Advanced Audio Codec
Format profile                           : Main
Codec ID                                 : A_AAC
Duration                                 : 24 min 32 s
Bit rate                                 : 77.3 kb/s
Channel(s)                               : 2 channels
Channel positions                        : Front: L R
Sampling rate                            : 48.0 kHz
Frame rate                               : 46.875 FPS (1024 spf)
Compression mode                         : Lossy
Stream size                              : 13.6 MiB (11%)
Language                                 : Japanese
Default                                  : No
Forced                                   : No

Audio #2
ID                                       : 3
Format                                   : AAC
Format/Info                              : Advanced Audio Codec
Format profile                           : Main
Codec ID                                 : A_AAC
Duration                                 : 24 min 32 s
Bit rate                                 : 77.3 kb/s
Channel(s)                               : 2 channels
Channel positions                        : Front: L R
Sampling rate                            : 48.0 kHz
Frame rate                               : 46.875 FPS (1024 spf)
Compression mode                         : Lossy
Stream size                              : 13.6 MiB (11%)
Language                                 : English
Default                                  : Yes
Forced                                   : No

Text
ID                                       : 4
Format                                   : ASS
Codec ID                                 : S_TEXT/ASS
Codec ID/Info                            : Advanced Sub Station Alpha
Duration                                 : 24 min 21 s
Bit rate                                 : 191 b/s
Count of elements                        : 540
Compression mode                         : Lossless
Stream size                              : 34.2 KiB (0%)
Title                                    : Styled Subtitle (Commie)
Language                                 : English
Default                                  : Yes
Forced                                   : No

Menu
00:00:00.000                             : en:Intro
00:00:33.992                             : en:OP
00:02:03.957                             : en:Part A
00:12:35.839                             : en:Eyecatch
00:12:39.927                             : en:Part B
00:22:35.898                             : en:ED
00:24:05.904                             : en:Preview

Other Files in this Torrent
[Cleo]Log_Horizon_2_-_17_(Dual Audio_10bit_720p).mkv
beta
Anime DDL+NZB mirror
Current Time: 20/07/2024 05:54



About/FAQs

Discord