[Chihiro] Mikagura Gakuen Kumikyoku 12 [Blu-ray 1080p Hi10P FLAC][D88A64BE].mkv


File Size896.9 MB (940,419,332 bytes)
DownloadClickNUpload | DownloadGG | KrakenFiles
MultiUp: Part1
  • BdUpload
  • DownAce
  • Fichier
  • FileCloud
  • Filerio
  • FilesCdn
  • IndiShare
  • Kbagi
  • Turbobit
  • UpToBox
  • Uppit
, Part2
  • BdUpload
  • DownAce
  • Fichier
  • FileCloud
  • Filerio
  • FilesCdn
  • IndiShare
  • Kbagi
  • Turbobit
  • UpToBox
  • Uppit

ZippyShare: Part1, Part2
HashesCRC32: D88A64BE, MD5: CA214BD39EB9F1FC001A9C38D69B91BC, SHA1: AF61754889BE100818298846AABAEEA2C4327261, SHA256: E227AB28541BF432F570DBDC3B721685C2123ED0DEB7595CE7CF6489CAF43063, ED2K: B233BBC4F41A8697F70AF1C452CF799F
Screenshots
screenshotscreenshotscreenshotscreenshotscreenshot
SubtitlesAll Attachments | English [eng, ASS]
Additional Info
General
Unique ID                                : 262819531745825766204812462273388808875 (0xC5B9335B907C0F6EF58A22A7562F0AAB)
Complete name                            : [Chihiro] Mikagura Gakuen Kumikyoku 12 [Blu-ray 1080p Hi10P FLAC][D88A64BE].mkv
Format                                   : Matroska
Format version                           : Version 4
File size                                : 897 MiB
Duration                                 : 23 min 40 s
Overall bit rate mode                    : Variable
Overall bit rate                         : 5 298 kb/s
Movie name                               : Mikagura Gakuen Kumikyoku 12
Encoded date                             : UTC 2022-06-22 18:12:57
Writing application                      : mkvmerge v68.0.0 ('The Curtain') 64-bit
Writing library                          : libebml v1.4.2 + libmatroska v1.6.4
Attachments                              : Baqa.otf / Dungeon.TTF / JejuGothic.ttf / NozakiDialogue-Bold.otf / NozakiDialogue-BoldItalic.otf / OldSansBlack.ttf / PaintyPaint 1.TTF / Public Utility Jeepney.TTF / Quantum Flat BRK.ttf / Rambla.OTF / Schoolbell.TTF / Vesta-Bold.ttf

Video
ID                                       : 1
Format                                   : AVC
Format/Info                              : Advanced Video Codec
Format profile                           : High 10@L5
Format settings                          : CABAC / 9 Ref Frames
Format settings, CABAC                   : Yes
Format settings, Reference frames        : 9 frames
Codec ID                                 : V_MPEG4/ISO/AVC
Duration                                 : 23 min 40 s
Bit rate                                 : 4 474 kb/s
Width                                    : 1 920 pixels
Height                                   : 1 080 pixels
Display aspect ratio                     : 16:9
Frame rate mode                          : Constant
Frame rate                               : 23.976 (24000/1001) FPS
Color space                              : YUV
Chroma subsampling                       : 4:2:0
Bit depth                                : 10 bits
Scan type                                : Progressive
Bits/(Pixel*Frame)                       : 0.090
Stream size                              : 757 MiB (84%)
Title                                    : Mikagura Gakuen Kumikyoku 12
Writing library                          : x264 core 160 r3000 33f9e14
Encoding settings                        : cabac=1 / ref=9 / deblock=1:-1:-2 / analyse=0x3:0x133 / me=umh / subme=10 / psy=1 / psy_rd=0.80:0.00 / mixed_ref=1 / me_range=24 / chroma_me=1 / trellis=2 / 8x8dct=1 / cqm=0 / deadzone=21,11 / fast_pskip=1 / chroma_qp_offset=-2 / threads=34 / lookahead_threads=5 / sliced_threads=0 / nr=0 / decimate=1 / interlaced=0 / bluray_compat=0 / constrained_intra=0 / bframes=8 / b_pyramid=2 / b_adapt=2 / b_bias=0 / direct=3 / weightb=1 / open_gop=0 / weightp=2 / keyint=250 / keyint_min=23 / scenecut=40 / intra_refresh=0 / rc_lookahead=120 / rc=crf / mbtree=1 / crf=16.0 / qcomp=0.80 / qpmin=0 / qpmax=81 / qpstep=4 / ip_ratio=1.40 / aq=3:0.70
Default                                  : Yes
Forced                                   : No
Color range                              : Limited
Matrix coefficients                      : BT.709

Audio
ID                                       : 2
Format                                   : FLAC
Format/Info                              : Free Lossless Audio Codec
Codec ID                                 : A_FLAC
Duration                                 : 23 min 40 s
Bit rate mode                            : Variable
Bit rate                                 : 771 kb/s
Channel(s)                               : 2 channels
Sampling rate                            : 48.0 kHz
Frame rate                               : 11.719 FPS (4096 SPF)
Bit depth                                : 16 bits
Compression mode                         : Lossless
Stream size                              : 131 MiB (15%)
Title                                    : 2.0 FLAC
Writing library                          : libFLAC 1.2.1 (UTC 2007-09-17)
Language                                 : Japanese
Default                                  : Yes
Forced                                   : No

Text
ID                                       : 3
Format                                   : ASS
Codec ID                                 : S_TEXT/ASS
Codec ID/Info                            : Advanced Sub Station Alpha
Duration                                 : 23 min 14 s
Bit rate                                 : 28.7 kb/s
Count of elements                        : 24724
Compression mode                         : Lossless
Stream size                              : 4.76 MiB (1%)
Title                                    : English
Language                                 : English
Default                                  : Yes
Forced                                   : No

Menu
00:00:00.000                             : :Prologue
00:00:59.059                             : :Opening
00:02:29.024                             : :Mikagura Gakuen Kumikyoku 12
00:20:07.581                             : :Ending

Other Files in this Torrent
[Chihiro] Mikagura Gakuen Kumikyoku 12 [Blu-ray 1080p Hi10P FLAC][D88A64BE].mkv
beta
Anime DDL+NZB mirror
Current Time: 14/08/2022 19:36



About/FAQs

Discord