[Chihiro] Mikagura Gakuen Kumikyoku 11 [Blu-ray 1080p Hi10P FLAC][58B2BA72].mkv


File Size743.6 MB (779,721,829 bytes)
DownloadClickNUpload | DownloadGG | KrakenFiles
MultiUp: Part1
  • BdUpload
  • DownAce
  • Fichier
  • FileCloud
  • Filerio
  • FilesCdn
  • IndiShare
  • Kbagi
  • Turbobit
  • UpToBox
  • Uppit
, Part2
  • BdUpload
  • DownAce
  • Fichier
  • FileCloud
  • Filerio
  • FilesCdn
  • IndiShare
  • Kbagi
  • Turbobit
  • UpToBox
  • Uppit

ZippyShare: Part1, Part2
HashesCRC32: 58B2BA72, MD5: B7B15E4CE7341358D29012C58639C416, SHA1: 86898438B35E8CB42B8C5C627C0964AAA22AD92B, SHA256: 48A39A2AA4EEE64F5D6C74203870B8BEA3CE3C8D5F9BD45BFA645FB0A5DC8378, ED2K: 160427D52A30500541FCD375D819E680
Screenshots
screenshotscreenshotscreenshotscreenshotscreenshot
SubtitlesAll Attachments | English [eng, ASS]
Additional Info
General
Unique ID                                : 172961863224450267018975054518988117517 (0x821F3E3FDF09C325E17543E3F8D5160D)
Complete name                            : [Chihiro] Mikagura Gakuen Kumikyoku 11 [Blu-ray 1080p Hi10P FLAC][58B2BA72].mkv
Format                                   : Matroska
Format version                           : Version 4
File size                                : 744 MiB
Duration                                 : 24 min 33 s
Overall bit rate mode                    : Variable
Overall bit rate                         : 4 235 kb/s
Movie name                               : Mikagura Gakuen Kumikyoku 11
Encoded date                             : UTC 2022-06-22 18:12:39
Writing application                      : mkvmerge v68.0.0 ('The Curtain') 64-bit
Writing library                          : libebml v1.4.2 + libmatroska v1.6.4
Attachments                              : Arlon SemiBold DEMO.otf / Brush Strokes.ttf / Gisha.TTF / MedievalSharp.ttf / NozakiDialogue-Bold.otf / NozakiDialogue-BoldItalic.otf / Nyala.TTF / OldSansBlack.ttf / PaintyPaint 1.TTF / Perspective Sans Bold.ttf / Quantum Flat BRK.ttf / Schoolbell.TTF / Vesta-Bold.ttf

Video
ID                                       : 1
Format                                   : AVC
Format/Info                              : Advanced Video Codec
Format profile                           : High 10@L5
Format settings                          : CABAC / 9 Ref Frames
Format settings, CABAC                   : Yes
Format settings, Reference frames        : 9 frames
Codec ID                                 : V_MPEG4/ISO/AVC
Duration                                 : 24 min 33 s
Bit rate                                 : 3 532 kb/s
Width                                    : 1 920 pixels
Height                                   : 1 080 pixels
Display aspect ratio                     : 16:9
Frame rate mode                          : Constant
Frame rate                               : 23.976 (24000/1001) FPS
Color space                              : YUV
Chroma subsampling                       : 4:2:0
Bit depth                                : 10 bits
Scan type                                : Progressive
Bits/(Pixel*Frame)                       : 0.071
Stream size                              : 620 MiB (83%)
Title                                    : Mikagura Gakuen Kumikyoku 11
Writing library                          : x264 core 160 r3000 33f9e14
Encoding settings                        : cabac=1 / ref=9 / deblock=1:-1:-2 / analyse=0x3:0x133 / me=umh / subme=10 / psy=1 / psy_rd=0.80:0.00 / mixed_ref=1 / me_range=24 / chroma_me=1 / trellis=2 / 8x8dct=1 / cqm=0 / deadzone=21,11 / fast_pskip=1 / chroma_qp_offset=-2 / threads=34 / lookahead_threads=5 / sliced_threads=0 / nr=0 / decimate=1 / interlaced=0 / bluray_compat=0 / constrained_intra=0 / bframes=8 / b_pyramid=2 / b_adapt=2 / b_bias=0 / direct=3 / weightb=1 / open_gop=0 / weightp=2 / keyint=250 / keyint_min=23 / scenecut=40 / intra_refresh=0 / rc_lookahead=120 / rc=crf / mbtree=1 / crf=16.0 / qcomp=0.80 / qpmin=0 / qpmax=81 / qpstep=4 / ip_ratio=1.40 / aq=3:0.70
Default                                  : Yes
Forced                                   : No
Color range                              : Limited
Matrix coefficients                      : BT.709

Audio
ID                                       : 2
Format                                   : FLAC
Format/Info                              : Free Lossless Audio Codec
Codec ID                                 : A_FLAC
Duration                                 : 24 min 33 s
Bit rate mode                            : Variable
Bit rate                                 : 678 kb/s
Channel(s)                               : 2 channels
Sampling rate                            : 48.0 kHz
Frame rate                               : 11.719 FPS (4096 SPF)
Bit depth                                : 16 bits
Compression mode                         : Lossless
Stream size                              : 119 MiB (16%)
Title                                    : 2.0 FLAC
Writing library                          : libFLAC 1.2.1 (UTC 2007-09-17)
Language                                 : Japanese
Default                                  : Yes
Forced                                   : No

Text
ID                                       : 3
Format                                   : ASS
Codec ID                                 : S_TEXT/ASS
Codec ID/Info                            : Advanced Sub Station Alpha
Duration                                 : 24 min 24 s
Bit rate                                 : 10.3 kb/s
Count of elements                        : 17248
Compression mode                         : Lossless
Stream size                              : 1.80 MiB (0%)
Title                                    : English
Language                                 : English
Default                                  : Yes
Forced                                   : No

Menu
00:00:00.000                             : :Prologue
00:01:55.032                             : :Opening
00:03:24.996                             : :Mikagura Gakuen Kumikyoku 11
00:22:09.995                             : :Ending
00:23:40.002                             : :Preview

Other Files in this Torrent
[Chihiro] Mikagura Gakuen Kumikyoku 11 [Blu-ray 1080p Hi10P FLAC][58B2BA72].mkv
beta
Anime DDL+NZB mirror
Current Time: 14/08/2022 18:45



About/FAQs

Discord