[Chihiro] Mikagura Gakuen Kumikyoku 08 [Blu-ray 1080p Hi10P FLAC][C0BEE436].mkv


File Size712.2 MB (746,842,228 bytes)
DownloadClickNUpload | DownloadGG | KrakenFiles
MultiUp: Part1
  • BdUpload
  • DownAce
  • Fichier
  • FileCloud
  • Filerio
  • FilesCdn
  • IndiShare
  • Kbagi
  • Turbobit
  • UpToBox
  • Uppit
, Part2
  • BdUpload
  • DownAce
  • Fichier
  • FileCloud
  • Filerio
  • FilesCdn
  • IndiShare
  • Kbagi
  • Turbobit
  • UpToBox
  • Uppit

ZippyShare: Part1, Part2
HashesCRC32: C0BEE436, MD5: 977342702C65AA74DBCC67B0C35F657C, SHA1: A74D258855DD9B01643B78A8EA7B113B58B23374, SHA256: 774370B06C7D59A6BECE324681B10D16F1293FD367840F7C6D406BCCAB79D83C, ED2K: 3D9DF47D64CCFC0D6FE2E294A0762D68
Screenshots
screenshotscreenshotscreenshotscreenshotscreenshot
SubtitlesAll Attachments | English [eng, ASS]
Additional Info
General
Unique ID                                : 162760382669627181742548609184650245068 (0x7A72826CE8FB66E91E41714A419033CC)
Complete name                            : [Chihiro] Mikagura Gakuen Kumikyoku 08 [Blu-ray 1080p Hi10P FLAC][C0BEE436].mkv
Format                                   : Matroska
Format version                           : Version 4
File size                                : 712 MiB
Duration                                 : 24 min 29 s
Overall bit rate mode                    : Variable
Overall bit rate                         : 4 067 kb/s
Movie name                               : Mikagura Gakuen Kumikyoku 08
Encoded date                             : UTC 2022-06-22 18:10:02
Writing application                      : mkvmerge v68.0.0 ('The Curtain') 64-bit
Writing library                          : libebml v1.4.2 + libmatroska v1.6.4
Attachments                              : 6809 Chargen.ttf / Arlon SemiBold DEMO.otf / consolab.ttf / Consolas Bold.TTF / Dungeon.TTF / Felt Regular.ttf / JaguarJC Bold.ttf / Knights Templar.ttf / Montara-BoldGothic.otf / Montara-Gothic.otf / Noticia Text Bold.ttf / NozakiDialogue-Bold.otf / NozakiDialogue-BoldItalic.otf / OldSansBlack.ttf / PaintyPaint 1.TTF / Please write me a song.ttf / Public Utility Jeepney.TTF / Quantum Flat BRK.ttf / Schoolbell.TTF / VAGRounded Lt-Normal.TTF / Vegur-Bold.OTF / Vesta-Bold.ttf

Video
ID                                       : 1
Format                                   : AVC
Format/Info                              : Advanced Video Codec
Format profile                           : High 10@L5
Format settings                          : CABAC / 9 Ref Frames
Format settings, CABAC                   : Yes
Format settings, Reference frames        : 9 frames
Codec ID                                 : V_MPEG4/ISO/AVC
Duration                                 : 24 min 29 s
Bit rate                                 : 3 318 kb/s
Width                                    : 1 920 pixels
Height                                   : 1 080 pixels
Display aspect ratio                     : 16:9
Frame rate mode                          : Constant
Frame rate                               : 23.976 (24000/1001) FPS
Color space                              : YUV
Chroma subsampling                       : 4:2:0
Bit depth                                : 10 bits
Scan type                                : Progressive
Bits/(Pixel*Frame)                       : 0.067
Stream size                              : 581 MiB (82%)
Title                                    : Mikagura Gakuen Kumikyoku 08
Writing library                          : x264 core 160 r3000 33f9e14
Encoding settings                        : cabac=1 / ref=9 / deblock=1:-1:-2 / analyse=0x3:0x133 / me=umh / subme=10 / psy=1 / psy_rd=0.80:0.00 / mixed_ref=1 / me_range=24 / chroma_me=1 / trellis=2 / 8x8dct=1 / cqm=0 / deadzone=21,11 / fast_pskip=1 / chroma_qp_offset=-2 / threads=34 / lookahead_threads=5 / sliced_threads=0 / nr=0 / decimate=1 / interlaced=0 / bluray_compat=0 / constrained_intra=0 / bframes=8 / b_pyramid=2 / b_adapt=2 / b_bias=0 / direct=3 / weightb=1 / open_gop=0 / weightp=2 / keyint=250 / keyint_min=23 / scenecut=40 / intra_refresh=0 / rc_lookahead=120 / rc=crf / mbtree=1 / crf=16.0 / qcomp=0.80 / qpmin=0 / qpmax=81 / qpstep=4 / ip_ratio=1.40 / aq=3:0.70
Default                                  : Yes
Forced                                   : No
Color range                              : Limited
Matrix coefficients                      : BT.709

Audio
ID                                       : 2
Format                                   : FLAC
Format/Info                              : Free Lossless Audio Codec
Codec ID                                 : A_FLAC
Duration                                 : 24 min 29 s
Bit rate mode                            : Variable
Bit rate                                 : 724 kb/s
Channel(s)                               : 2 channels
Sampling rate                            : 48.0 kHz
Frame rate                               : 11.719 FPS (4096 SPF)
Bit depth                                : 16 bits
Compression mode                         : Lossless
Stream size                              : 127 MiB (18%)
Title                                    : 2.0 FLAC
Writing library                          : libFLAC 1.2.1 (UTC 2007-09-17)
Language                                 : Japanese
Default                                  : Yes
Forced                                   : No

Text
ID                                       : 3
Format                                   : ASS
Codec ID                                 : S_TEXT/ASS
Codec ID/Info                            : Advanced Sub Station Alpha
Duration                                 : 24 min 27 s
Bit rate                                 : 7 961 b/s
Count of elements                        : 15259
Compression mode                         : Lossless
Stream size                              : 1.39 MiB (0%)
Title                                    : English
Language                                 : English
Default                                  : Yes
Forced                                   : No

Menu
00:00:00.000                             : :Prologue
00:01:15.993                             : :Opening
00:02:46.041                             : :Mikagura Gakuen Kumikyoku 08
00:22:10.037                             : :Ending
00:23:40.044                             : :Preview

Other Files in this Torrent
[Chihiro] Mikagura Gakuen Kumikyoku 08 [Blu-ray 1080p Hi10P FLAC][C0BEE436].mkv
beta
Anime DDL+NZB mirror
Current Time: 14/08/2022 18:52



About/FAQs

Discord