BD Specials (Subbed)/Josee, the Tiger and the Fish. (2020) [Director Special Interview] (BDRip 1920x1080 x264 10bit DTS-HD.MA) [IrizaRaws].mkv


File Size1.807 GB (1,940,775,786 bytes)
DownloadClickNUpload
DownloadGG: Part1, Part2
MultiUp: Part1
  • BdUpload
  • DownAce
  • Fichier
  • FileCloud
  • Filerio
  • FilesCdn
  • IndiShare
  • Kbagi
  • Turbobit
  • UpToBox
  • Uppit
, Part2
  • BdUpload
  • DownAce
  • Fichier
  • FileCloud
  • Filerio
  • FilesCdn
  • IndiShare
  • Kbagi
  • Turbobit
  • UpToBox
  • Uppit
, Part3
  • BdUpload
  • DownAce
  • Fichier
  • FileCloud
  • Filerio
  • FilesCdn
  • IndiShare
  • Kbagi
  • Turbobit
  • UpToBox
  • Uppit
, Part4
  • BdUpload
  • DownAce
  • Fichier
  • FileCloud
  • Filerio
  • FilesCdn
  • IndiShare
  • Kbagi
  • Turbobit
  • UpToBox
  • Uppit

ZippyShare: Part1, Part2, Part3, Part4
HashesCRC32: 77CBE883, MD5: FDB28458E411B17FB0BFF803640E03FB, SHA1: 94A7DFD475A52E622539166A65C0B3C6C176C6B9, SHA256: 3F81A9351C805956911108AB5E0072AFC0C6272BE7732D249346CAC1E747266C, ED2K: DD758A1F50CDE05131D03AA36A98E1F5
Screenshots
screenshotscreenshotscreenshotscreenshotscreenshot
SubtitlesAll Attachments | English PGS [eng, PGS]
Additional Info
General
Unique ID                                : 51029484686577903944810010223730627676 (0x2663EBD7B99CDB253B20BD6FDA06145C)
Complete name                            : Josee, the Tiger and the Fish. (2020) [Director Special Interview] (BDRip 1920x1080 x264 10bit DTS-HD.MA) [IrizaRaws].mkv
Format                                   : Matroska
Format version                           : Version 4
File size                                : 1.81 GiB
Duration                                 : 1 h 1 min
Overall bit rate mode                    : Variable
Overall bit rate                         : 4 208 kb/s
Encoded date                             : UTC 2022-03-04 15:20:00
Writing application                      : mkvmerge v49.0.0 ('Sick Of Losing Soulmates') 64-bit
Writing library                          : libebml v1.4.0 + libmatroska v1.6.1

Video
ID                                       : 1
Format                                   : AVC
Format/Info                              : Advanced Video Codec
Format profile                           : High 10@L5.2
Format settings                          : CABAC / 8 Ref Frames
Format settings, CABAC                   : Yes
Format settings, Reference frames        : 8 frames
Codec ID                                 : V_MPEG4/ISO/AVC
Duration                                 : 1 h 1 min
Bit rate                                 : 3 117 kb/s
Width                                    : 1 920 pixels
Height                                   : 1 080 pixels
Display aspect ratio                     : 16:9
Frame rate mode                          : Constant
Frame rate                               : 29.970 (29970/1000) FPS
Original frame rate                      : 29.970 (30000/1001) FPS
Color space                              : YUV
Chroma subsampling                       : 4:2:0
Bit depth                                : 10 bits
Scan type                                : Progressive
Bits/(Pixel*Frame)                       : 0.050
Stream size                              : 1.34 GiB (74%)
Title                                    : IrizaRaws
Writing library                          : x264 core 163 r3059 b684ebe
Encoding settings                        : cabac=1 / ref=8 / deblock=1:-2:-2 / analyse=0x3:0x113 / me=umh / subme=9 / psy=1 / psy_rd=0.70:0.00 / mixed_ref=0 / me_range=32 / chroma_me=1 / trellis=2 / 8x8dct=1 / cqm=0 / deadzone=21,11 / fast_pskip=0 / chroma_qp_offset=-2 / threads=22 / lookahead_threads=3 / sliced_threads=0 / nr=0 / decimate=1 / interlaced=0 / bluray_compat=0 / constrained_intra=0 / bframes=9 / b_pyramid=2 / b_adapt=2 / b_bias=0 / direct=0 / weightb=1 / open_gop=0 / weightp=2 / keyint=250 / keyint_min=23 / scenecut=40 / intra_refresh=0 / rc=crf / mbtree=0 / crf=22.0 / qcomp=1.00 / qpmin=0 / qpmax=50 / qpstep=4 / ip_ratio=1.40 / pb_ratio=1.30 / aq=1:1.00
Language                                 : Japanese
Default                                  : Yes
Forced                                   : No

Audio
ID                                       : 2
Format                                   : FLAC
Format/Info                              : Free Lossless Audio Codec
Codec ID                                 : A_FLAC
Duration                                 : 1 h 1 min
Bit rate mode                            : Variable
Bit rate                                 : 1 069 kb/s
Channel(s)                               : 2 channels
Channel layout                           : L R
Sampling rate                            : 48.0 kHz
Frame rate                               : 11.719 FPS (4096 SPF)
Bit depth                                : 24 bits
Compression mode                         : Lossless
Stream size                              : 470 MiB (25%)
Title                                    : Japanese 2.0 DTS-HD.MA
Writing library                          : libFLAC 1.3.3 (UTC 2019-08-04)
Language                                 : Japanese
Default                                  : Yes
Forced                                   : No

Text
ID                                       : 3
Format                                   : PGS
Muxing mode                              : zlib
Codec ID                                 : S_HDMV/PGS
Codec ID/Info                            : Picture based subtitle format used on BDs/HD-DVDs
Duration                                 : 1 h 1 min
Bit rate                                 : 58.1 kb/s
Count of elements                        : 1786
Stream size                              : 25.4 MiB (1%)
Title                                    : English PGS
Language                                 : English
Default                                  : Yes
Forced                                   : No

Menu
00:00:00.000                             : Chapter 01
00:15:15.981                             : Chapter 02
00:29:10.515                             : Chapter 03
00:47:05.222                             : Chapter 04

Other Files in this Torrent
BD Specials (Subbed)/Josee, the Tiger and the Fish. (2020) [Director Special Interview] (BDRip 1920x1080 x264 10bit DTS-HD.MA) [IrizaRaws].mkv
beta
Anime DDL+NZB mirror
Current Time: 06/12/2022 23:28



About/FAQs

Discord