[Asenshi-PAS] Made in Abyss - 07 [BD 1080p AAC] [CED52784].mkv


File Size785.0 MB (823,138,890 bytes)
DownloadClickNUpload | Jheberg | OpenLoad
MultiUp: Part1, Part2
Sendspace: Part1, Part2, Part3
ZippyShare: Part1, Part2
HashesCRC32: CED52784, MD5: DB4742C44A538DDFA37CDC8D0042B384, SHA1: 1BF37BF56D8E1BC1EC991B51802FF098AB779DB2, SHA256: 474694D182535C690A4C3E63DBC2144D5B26CE38E8CFCEC0192F9DAA9942C2FC, ED2K: B29DC29CC5867E0741B950040883D183
Screenshots
screenshotscreenshotscreenshotscreenshotscreenshot
SubtitlesAll Attachments | eng [ASS]
Additional Info
General
Unique ID                                : 271951154476085274050092845579135310226 (0xCC97E31E559F455FB20FB695411B5992)
Complete name                            : [Asenshi-PAS] Made in Abyss - 07 [BD 1080p AAC] [CED52784].mkv
Format                                   : Matroska
Format version                           : Version 4
File size                                : 785 MiB
Duration                                 : 23 min 40 s
Overall bit rate                         : 4 637 kb/s
Encoded date                             : UTC 2019-01-24 21:08:19
Writing application                      : mkvmerge v27.0.0 ('Metropolis') 64-bit
Writing library                          : libebml v1.3.6 + libmatroska v1.4.9
Attachments                              : CronosPro-Semibold.ttf / CronosPro-SemiboldIt.ttf / DRIPDROP.TTF / KGShadowOfTheDay.ttf / playtime.ttf / saru(sRB).TTF

Video
ID                                       : 1
Format                                   : AVC
Format/Info                              : Advanced Video Codec
Format profile                           : High 10@L5.1
Format settings                          : CABAC / 16 Ref Frames
Format settings, CABAC                   : Yes
Format settings, ReFrames                : 16 frames
Codec ID                                 : V_MPEG4/ISO/AVC
Duration                                 : 23 min 40 s
Bit rate                                 : 4 357 kb/s
Width                                    : 1 920 pixels
Height                                   : 1 080 pixels
Display aspect ratio                     : 16:9
Frame rate mode                          : Constant
Frame rate                               : 23.976 (24000/1001) FPS
Color space                              : YUV
Chroma subsampling                       : 4:2:0
Bit depth                                : 10 bits
Scan type                                : Progressive
Bits/(Pixel*Frame)                       : 0.088
Stream size                              : 738 MiB (94%)
Writing library                          : x264 core 155 r2867+74 66b5600 t_mod_Custom_2 [10-bit@all X86_64]
Encoding settings                        : cabac=1 / ref=16 / deblock=1:-1:-1 / analyse=0x3:0x133 / me=tesa / subme=10 / psy=1 / fade_compensate=0.80 / psy_rd=0.95:0.00 / mixed_ref=1 / me_range=48 / chroma_me=1 / trellis=2 / 8x8dct=1 / cqm=0 / deadzone=21,11 / fast_pskip=1 / chroma_qp_offset=-2 / threads=12 / lookahead_threads=3 / sliced_threads=0 / nr=0 / decimate=1 / interlaced=0 / bluray_compat=0 / constrained_intra=0 / fgo=0 / bframes=16 / b_pyramid=2 / b_adapt=2 / b_bias=0 / direct=3 / weightb=1 / open_gop=0 / weightp=2 / keyint=250 / keyint_min=23 / scenecut=40 / intra_refresh=0 / rc_lookahead=60 / rc=crf / mbtree=1 / crf=15.0000 / qcomp=0.65 / qpmin=0:0:0 / qpmax=81:81:81 / qpstep=4 / ip_ratio=1.40 / aq=3:0.80 / aq-sensitivity=10.00 / aq-factor=1.00:1.00:1.00 / aq2=0 / aq3=0
Language                                 : Japanese
Default                                  : Yes
Forced                                   : No
Color range                              : Limited
Matrix coefficients                      : BT.709

Audio
ID                                       : 2
Format                                   : AAC LC
Format/Info                              : Advanced Audio Codec Low Complexity
Codec ID                                 : A_AAC-2
Duration                                 : 23 min 40 s
Bit rate                                 : 275 kb/s
Channel(s)                               : 2 channels
Channel layout                           : L R
Sampling rate                            : 48.0 kHz
Frame rate                               : 46.875 FPS (1024 SPF)
Compression mode                         : Lossy
Stream size                              : 46.5 MiB (6%)
Language                                 : Japanese
Default                                  : Yes
Forced                                   : No

Text
ID                                       : 3
Format                                   : ASS
Codec ID                                 : S_TEXT/ASS
Codec ID/Info                            : Advanced Sub Station Alpha
Duration                                 : 23 min 38 s
Bit rate                                 : 458 b/s
Count of elements                        : 367
Compression mode                         : Lossless
Stream size                              : 79.4 KiB (0%)
Language                                 : English
Default                                  : Yes
Forced                                   : No

Menu
00:00:00.000                             : :Intro
00:00:28.445                             : :OP
00:01:58.035                             : :Part A
00:11:57.050                             : :Part B
00:22:00.069                             : :ED
00:23:30.075                             : :Preview

Other Files in this Torrent
[Asenshi-PAS] Made in Abyss - 07 [BD 1080p AAC] [CED52784].mkv
beta
Anime DDL+NZB mirror
Current Time: 21/06/2024 07:44



About/FAQs

Discord