[Asenshi-PAS] Made in Abyss - 04 [BD 1080p AAC] [7C6EE3B3].mkv


File Size855.6 MB (897,138,324 bytes)
DownloadClickNUpload | Jheberg | OpenLoad
MultiUp: Part1, Part2
Sendspace: Part1, Part2, Part3
ZippyShare: Part1, Part2
HashesCRC32: 7C6EE3B3, MD5: BF511FEF6F034890F5394C1C5E7658B5, SHA1: BBC36752B93AF3391297224E63E118E1B974723D, SHA256: B8D013B4D326E2E583AA8DE75506F566676C5E2147B4F2BF2FCE702675C2E7CF, ED2K: D0957C3F0B8DE26D9BC0AB67DCA913D3
Screenshots
screenshotscreenshotscreenshotscreenshotscreenshot
SubtitlesAll Attachments | eng [ASS]
Additional Info
General
Unique ID                                : 7174062107929280595329171185659014737 (0x565AC920EA268425ADA442E4CEBEE51)
Complete name                            : [Asenshi-PAS] Made in Abyss - 04 [BD 1080p AAC] [7C6EE3B3].mkv
Format                                   : Matroska
Format version                           : Version 4
File size                                : 856 MiB
Duration                                 : 23 min 40 s
Overall bit rate                         : 5 054 kb/s
Encoded date                             : UTC 2019-01-24 03:44:02
Writing application                      : mkvmerge v27.0.0 ('Metropolis') 64-bit
Writing library                          : libebml v1.3.6 + libmatroska v1.4.9
Attachments                              : DFGYOSHO-LT-WING-RKSJ-H.TTF / DRIPDROP.TTF / KGShadowOfTheDay.ttf / playtime.ttf / saru(sRB).TTF / CronosPro-Semibold.ttf / CronosPro-SemiboldIt.ttf

Video
ID                                       : 1
Format                                   : AVC
Format/Info                              : Advanced Video Codec
Format profile                           : High 10@L5.1
Format settings                          : CABAC / 16 Ref Frames
Format settings, CABAC                   : Yes
Format settings, ReFrames                : 16 frames
Codec ID                                 : V_MPEG4/ISO/AVC
Duration                                 : 23 min 40 s
Bit rate                                 : 4 757 kb/s
Width                                    : 1 920 pixels
Height                                   : 1 080 pixels
Display aspect ratio                     : 16:9
Frame rate mode                          : Constant
Frame rate                               : 23.976 (24000/1001) FPS
Color space                              : YUV
Chroma subsampling                       : 4:2:0
Bit depth                                : 10 bits
Scan type                                : Progressive
Bits/(Pixel*Frame)                       : 0.096
Stream size                              : 805 MiB (94%)
Writing library                          : x264 core 148 r2762+56 7979737 t_mod_Custom [10-bit@all X86_64]
Encoding settings                        : cabac=1 / ref=16 / deblock=1:-1:-1 / analyse=0x3:0x133 / me=tesa / subme=10 / psy=1 / fade_compensate=0.80 / psy_rd=0.95:0.00 / mixed_ref=1 / me_range=48 / chroma_me=1 / trellis=2 / 8x8dct=1 / cqm=0 / deadzone=21,11 / fast_pskip=1 / chroma_qp_offset=-2 / threads=12 / lookahead_threads=3 / sliced_threads=0 / nr=0 / decimate=1 / interlaced=0 / bluray_compat=0 / constrained_intra=0 / fgo=0 / bframes=16 / b_pyramid=2 / b_adapt=2 / b_bias=0 / direct=3 / weightb=1 / open_gop=0 / weightp=2 / keyint=250 / keyint_min=23 / scenecut=40 / intra_refresh=0 / rc_lookahead=60 / rc=crf / mbtree=1 / crf=15.0000 / qcomp=0.65 / qpmin=0:0:0 / qpmax=81:81:81 / qpstep=4 / ip_ratio=1.40 / aq=3:0.80 / aq-sensitivity=10.00 / aq-factor=1.00:1.00:1.00 / aq2=0 / aq3=0
Language                                 : Japanese
Default                                  : Yes
Forced                                   : No
Color range                              : Limited
Matrix coefficients                      : BT.709

Audio
ID                                       : 2
Format                                   : AAC LC
Format/Info                              : Advanced Audio Codec Low Complexity
Codec ID                                 : A_AAC-2
Duration                                 : 23 min 40 s
Bit rate                                 : 265 kb/s
Channel(s)                               : 2 channels
Channel layout                           : L R
Sampling rate                            : 48.0 kHz
Frame rate                               : 46.875 FPS (1024 SPF)
Compression mode                         : Lossy
Stream size                              : 45.1 MiB (5%)
Language                                 : Japanese
Default                                  : Yes
Forced                                   : No

Text
ID                                       : 3
Format                                   : ASS
Codec ID                                 : S_TEXT/ASS
Codec ID/Info                            : Advanced Sub Station Alpha
Duration                                 : 23 min 38 s
Bit rate                                 : 454 b/s
Count of elements                        : 388
Compression mode                         : Lossless
Stream size                              : 78.8 KiB (0%)
Language                                 : English
Default                                  : Yes
Forced                                   : No

Menu
00:00:00.000                             : :Intro
00:00:40.207                             : :OP
00:02:10.005                             : :Part A
00:11:37.030                             : :Part B
00:21:59.985                             : :ED
00:23:29.992                             : :Preview

Other Files in this Torrent
[Asenshi-PAS] Made in Abyss - 04 [BD 1080p AAC] [7C6EE3B3].mkv
beta
Anime DDL+NZB mirror
Current Time: 21/06/2024 08:19



About/FAQs

Discord