[Asenshi-PAS] Made in Abyss - 03 [BD 1080p AAC] [5C142E47].mkv


File Size665.3 MB (697,592,811 bytes)
DownloadClickNUpload | Go4Up | Jheberg | OpenLoad
MultiUp: Part1, Part2
Sendspace: Part1, Part2, Part3
ZippyShare: Part1, Part2
HashesCRC32: 5C142E47, MD5: C195F5C971E889D92F5E666DA3B2E183, SHA1: 24C3F8D7215C33287BE49E494D1D3BAB70864455, SHA256: CB7BE0C836367140E0657C4DEE35E5B74461B30DFC0AA923F0811CB8A265736E, ED2K: 8E83AB50121BFE5BE2521110F6CFE8AB
Screenshots
screenshotscreenshotscreenshotscreenshotscreenshot
SubtitlesAll Attachments | eng [ASS]
Additional Info
General
Unique ID                                : 171718064040414251324703686877769925428 (0x812FB2371149E513D6F81DF86E048334)
Complete name                            : [Asenshi-PAS] Made in Abyss - 03 [BD 1080p AAC] [5C142E47].mkv
Format                                   : Matroska
Format version                           : Version 4
File size                                : 665 MiB
Duration                                 : 23 min 40 s
Overall bit rate                         : 3 930 kb/s
Encoded date                             : UTC 2019-01-24 03:43:19
Writing application                      : mkvmerge v27.0.0 ('Metropolis') 64-bit
Writing library                          : libebml v1.3.6 + libmatroska v1.4.9
Attachments                              : CronosPro-SemiboldIt.ttf / DRIPDROP.TTF / playtime.ttf / saru(sRB).TTF / CronosPro-Semibold.ttf

Video
ID                                       : 1
Format                                   : AVC
Format/Info                              : Advanced Video Codec
Format profile                           : High 10@L5.1
Format settings                          : CABAC / 16 Ref Frames
Format settings, CABAC                   : Yes
Format settings, ReFrames                : 16 frames
Codec ID                                 : V_MPEG4/ISO/AVC
Duration                                 : 23 min 40 s
Bit rate                                 : 3 666 kb/s
Width                                    : 1 920 pixels
Height                                   : 1 080 pixels
Display aspect ratio                     : 16:9
Frame rate mode                          : Constant
Frame rate                               : 23.976 (24000/1001) FPS
Color space                              : YUV
Chroma subsampling                       : 4:2:0
Bit depth                                : 10 bits
Scan type                                : Progressive
Bits/(Pixel*Frame)                       : 0.074
Stream size                              : 621 MiB (93%)
Writing library                          : x264 core 148 r2762+56 7979737 t_mod_Custom [10-bit@all X86_64]
Encoding settings                        : cabac=1 / ref=16 / deblock=1:-1:-1 / analyse=0x3:0x133 / me=tesa / subme=10 / psy=1 / fade_compensate=0.80 / psy_rd=0.95:0.00 / mixed_ref=1 / me_range=48 / chroma_me=1 / trellis=2 / 8x8dct=1 / cqm=0 / deadzone=21,11 / fast_pskip=1 / chroma_qp_offset=-2 / threads=12 / lookahead_threads=3 / sliced_threads=0 / nr=0 / decimate=1 / interlaced=0 / bluray_compat=0 / constrained_intra=0 / fgo=0 / bframes=16 / b_pyramid=2 / b_adapt=2 / b_bias=0 / direct=3 / weightb=1 / open_gop=0 / weightp=2 / keyint=250 / keyint_min=23 / scenecut=40 / intra_refresh=0 / rc_lookahead=60 / rc=crf / mbtree=1 / crf=15.0000 / qcomp=0.65 / qpmin=0:0:0 / qpmax=81:81:81 / qpstep=4 / ip_ratio=1.40 / aq=3:0.80 / aq-sensitivity=10.00 / aq-factor=1.00:1.00:1.00 / aq2=0 / aq3=0
Language                                 : Japanese
Default                                  : Yes
Forced                                   : No
Color range                              : Limited
Matrix coefficients                      : BT.709

Audio
ID                                       : 2
Format                                   : AAC LC
Format/Info                              : Advanced Audio Codec Low Complexity
Codec ID                                 : A_AAC-2
Duration                                 : 23 min 40 s
Bit rate                                 : 258 kb/s
Channel(s)                               : 2 channels
Channel layout                           : L R
Sampling rate                            : 48.0 kHz
Frame rate                               : 46.875 FPS (1024 SPF)
Compression mode                         : Lossy
Stream size                              : 43.7 MiB (7%)
Language                                 : Japanese
Default                                  : Yes
Forced                                   : No

Text
ID                                       : 3
Format                                   : ASS
Codec ID                                 : S_TEXT/ASS
Codec ID/Info                            : Advanced Sub Station Alpha
Duration                                 : 23 min 37 s
Bit rate                                 : 475 b/s
Count of elements                        : 453
Compression mode                         : Lossless
Stream size                              : 82.2 KiB (0%)
Language                                 : English
Default                                  : Yes
Forced                                   : No

Menu
00:00:00.000                             : :Intro
00:01:26.003                             : :OP
00:02:56.051                             : :Part A
00:13:28.057                             : :Part B
00:23:30.034                             : :Preview

Other Files in this Torrent
[Asenshi-PAS] Made in Abyss - 03 [BD 1080p AAC] [5C142E47].mkv
beta
Anime DDL+NZB mirror
Current Time: 21/06/2024 08:14



About/FAQs

Discord