File Size1.892 GB (2,031,086,734 bytes)
DownloadAnonFiles | ClickNUpload | DropAPK
Free: Part1, Part2
MultiUp: Part1
  • BdUpload
  • DownAce
  • Fichier
  • FileCloud
  • Filerio
  • FilesCdn
  • IndiShare
  • Kbagi
  • Turbobit
  • UpToBox
  • Uppit
, Part2
  • BdUpload
  • DownAce
  • Fichier
  • FileCloud
  • Filerio
  • FilesCdn
  • IndiShare
  • Kbagi
  • Turbobit
  • UpToBox
  • Uppit
, Part3
  • BdUpload
  • DownAce
  • Fichier
  • FileCloud
  • Filerio
  • FilesCdn
  • IndiShare
  • Kbagi
  • Turbobit
  • UpToBox
  • Uppit
, Part4
  • BdUpload
  • DownAce
  • Fichier
  • FileCloud
  • Filerio
  • FilesCdn
  • IndiShare
  • Kbagi
  • Turbobit
  • UpToBox
  • Uppit

Sendspace: Part1, Part2, Part3, Part4, Part5, Part6, Part7
ZippyShare: Part1, Part2, Part3, Part4
HashesCRC32: 3060F6B1, MD5: BF5862C3841B9D245E1236896DC5CDDC, SHA1: 0D36F6C5DBB22F0685277B3D29294DEE4A6CA7C9, SHA256: 96CBF74DB59628B6E10250B0EFFEBF6AF87F35036E52802B6648FEA246D198FD, ED2K: F449E3B6F99D52B7A3F3AAC6EE2CC3C3
Screenshots
screenshotscreenshotscreenshotscreenshotscreenshot
SubtitlesAll Attachments | eng [ASS]
Additional Info
General
Unique ID                                : 113389331546577420959671807150015941923 (0x554DFDAB9EAC4186482DD04DE5608D23)
Complete name                            : [Asakura] Net-juu no Susume 08 [3060F6B1].mkv
Format                                   : Matroska
Format version                           : Version 4
File size                                : 1.89 GiB
Duration                                 : 24 min 46 s
Overall bit rate mode                    : Variable
Overall bit rate                         : 10.9 Mb/s
Encoded date                             : UTC 2020-06-30 18:05:34
Writing application                      : mkvmerge v48.0.0 ('Fortress Around Your Heart') 64-bit
Writing library                          : libebml v1.4.0 + libmatroska v1.6.0
Attachments                              : FOT Manyo Sosho Std Stripped EB.otf / Fot-Dotgothic12std-M.otf / Gandhisans-Bold.otf / Gandhisans-Bolditalic.otf / HTOWERT.TTF / AeroDB Normal.ttf / AGENCYB.TTF / A-OTF-FUTOMINA101PR5-BOLD.OTF / A-OTF-Jun34Pro-Medium.otf / A-OTF-Jun501Pro-Bold.otf / AXIS Std B.otf

Video
ID                                       : 1
Format                                   : AVC
Format/Info                              : Advanced Video Codec
Format profile                           : High 10@L5
Format settings                          : CABAC / 4 Ref Frames
Format settings, CABAC                   : Yes
Format settings, ReFrames                : 4 frames
Codec ID                                 : V_MPEG4/ISO/AVC
Duration                                 : 24 min 46 s
Bit rate                                 : 9 436 kb/s
Width                                    : 1 920 pixels
Height                                   : 1 080 pixels
Display aspect ratio                     : 16:9
Frame rate mode                          : Constant
Frame rate                               : 23.976 (24000/1001) FPS
Color space                              : YUV
Chroma subsampling                       : 4:2:0
Bit depth                                : 10 bits
Scan type                                : Progressive
Bits/(Pixel*Frame)                       : 0.190
Stream size                              : 1.63 GiB (86%)
Title                                    : BDRip by DJATOM
Writing library                          : x264 core 152 r2851 ba24899 (DJATOM's build)
Encoding settings                        : cabac=1 / ref=4 / deblock=1:1:-1 / analyse=0x3:0x113 / me=umh / subme=9 / psy=1 / psy_rd=1.00:0.00 / mixed_ref=1 / me_range=32 / chroma_me=1 / trellis=2 / 8x8dct=1 / cqm=0 / deadzone=21,11 / fast_pskip=1 / chroma_qp_offset=-2 / threads=12 / lookahead_threads=2 / sliced_threads=0 / nr=0 / decimate=1 / interlaced=0 / bluray_compat=0 / constrained_intra=0 / bframes=9 / b_pyramid=2 / b_adapt=2 / b_bias=0 / direct=1 / weightb=1 / open_gop=0 / weightp=2 / keyint=250 / keyint_min=23 / scenecut=40 / intra_refresh=0 / rc=crf / mbtree=0 / crf=15.5000 / qcomp=0.72 / qpmin=0 / qpmax=81 / qpstep=4 / ip_ratio=1.40 / pb_ratio=1.30 / aq=1:0.85
Language                                 : Japanese
Default                                  : Yes
Forced                                   : No
Color range                              : Limited
Color primaries                          : BT.709
Transfer characteristics                 : BT.709
Matrix coefficients                      : BT.709

Audio
ID                                       : 2
Format                                   : FLAC
Format/Info                              : Free Lossless Audio Codec
Codec ID                                 : A_FLAC
Duration                                 : 24 min 46 s
Bit rate mode                            : Variable
Bit rate                                 : 1 380 kb/s
Channel(s)                               : 2 channels
Channel layout                           : L R
Sampling rate                            : 48.0 kHz
Frame rate                               : 11.719 FPS (4096 SPF)
Bit depth                                : 24 bits
Compression mode                         : Lossless
Stream size                              : 245 MiB (13%)
Title                                    : PCM->FLAC
Writing library                          : libFLAC 1.2.1 (UTC 2007-09-17)
Language                                 : Japanese
Default                                  : Yes
Forced                                   : No

Text
ID                                       : 3
Format                                   : ASS
Codec ID                                 : S_TEXT/ASS
Codec ID/Info                            : Advanced Sub Station Alpha
Duration                                 : 24 min 29 s
Bit rate                                 : 714 b/s
Count of elements                        : 1416
Compression mode                         : Lossless
Stream size                              : 128 KiB (0%)
Language                                 : English
Default                                  : Yes
Forced                                   : No

Menu
00:00:00.000                             : en:OP
00:01:31.008                             : en:Part A
00:11:42.368                             : en:Part B
00:23:00.170                             : en:ED
00:24:30.177                             : en:Next

Other Files in this Torrent
[Asakura] Net-juu no Susume 08 [3060F6B1].mkv
beta
Anime DDL+NZB mirror
Current Time: 13/06/2024 06:42



About/FAQs

Discord