File Size1.846 GB (1,982,526,695 bytes)
DownloadAnonFiles | ClickNUpload | DropAPK
Free: Part1, Part2
MultiUp: Part1
  • BdUpload
  • DownAce
  • Fichier
  • FileCloud
  • Filerio
  • FilesCdn
  • IndiShare
  • Kbagi
  • Turbobit
  • UpToBox
  • Uppit
, Part2
  • BdUpload
  • DownAce
  • Fichier
  • FileCloud
  • Filerio
  • FilesCdn
  • IndiShare
  • Kbagi
  • Turbobit
  • UpToBox
  • Uppit
, Part3
  • BdUpload
  • DownAce
  • Fichier
  • FileCloud
  • Filerio
  • FilesCdn
  • IndiShare
  • Kbagi
  • Turbobit
  • UpToBox
  • Uppit
, Part4
  • BdUpload
  • DownAce
  • Fichier
  • FileCloud
  • Filerio
  • FilesCdn
  • IndiShare
  • Kbagi
  • Turbobit
  • UpToBox
  • Uppit

Sendspace: Part1, Part2, Part3, Part4, Part5, Part6, Part7
ZippyShare: Part1, Part2, Part3, Part4
HashesCRC32: 43CE2554, MD5: C07C01657226E30F29E980BD5128D728, SHA1: DE8A254EA0FD1CEF32A419D4194B072326B50159, SHA256: F89BF53FB266E94BB4501B5F3480BD2D760F459F061E03346DCAB68B2D7F0380, ED2K: 3A626FF5D997FF75B911E12715C740CE
Screenshots
screenshotscreenshotscreenshotscreenshotscreenshot
SubtitlesAll Attachments | eng [ASS]
Additional Info
General
Unique ID                                : 238920993302191532848376359203374052147 (0xB3BE8270D7BC9D4EFEB17E97BFCF3333)
Complete name                            : [Asakura] Net-juu no Susume 03 [43CE2554].mkv
Format                                   : Matroska
Format version                           : Version 4
File size                                : 1.85 GiB
Duration                                 : 24 min 11 s
Overall bit rate mode                    : Variable
Overall bit rate                         : 10.9 Mb/s
Encoded date                             : UTC 2020-06-30 18:05:34
Writing application                      : mkvmerge v48.0.0 ('Fortress Around Your Heart') 64-bit
Writing library                          : libebml v1.4.0 + libmatroska v1.6.0
Attachments                              : Angella_demo.otf / A-OTF-FUTOMINA101PR5-BOLD.OTF / A-OTF-Jun34Pro-Medium.otf / ARCENA.ttf / AXIS Std B.otf / FOT Manyo Sosho Std Stripped EB.otf / Gandhisans-Bold.otf / Gandhisans-Bolditalic.otf / AbelBecker Bold.ttf / Aero Matics Bold.ttf / AeroDB Normal.ttf / AGENCYB.TTF / AGENCYR.TTF / Aller_Rg.ttf

Video
ID                                       : 1
Format                                   : AVC
Format/Info                              : Advanced Video Codec
Format profile                           : High 10@L5
Format settings                          : CABAC / 4 Ref Frames
Format settings, CABAC                   : Yes
Format settings, ReFrames                : 4 frames
Codec ID                                 : V_MPEG4/ISO/AVC
Duration                                 : 24 min 11 s
Bit rate                                 : 9 521 kb/s
Width                                    : 1 920 pixels
Height                                   : 1 080 pixels
Display aspect ratio                     : 16:9
Frame rate mode                          : Constant
Frame rate                               : 23.976 (24000/1001) FPS
Color space                              : YUV
Chroma subsampling                       : 4:2:0
Bit depth                                : 10 bits
Scan type                                : Progressive
Bits/(Pixel*Frame)                       : 0.192
Stream size                              : 1.61 GiB (87%)
Title                                    : BDRip by DJATOM
Writing library                          : x264 core 152 r2851 ba24899 (DJATOM's build)
Encoding settings                        : cabac=1 / ref=4 / deblock=1:1:-1 / analyse=0x3:0x113 / me=umh / subme=9 / psy=1 / psy_rd=1.00:0.00 / mixed_ref=1 / me_range=32 / chroma_me=1 / trellis=2 / 8x8dct=1 / cqm=0 / deadzone=21,11 / fast_pskip=1 / chroma_qp_offset=-2 / threads=12 / lookahead_threads=2 / sliced_threads=0 / nr=0 / decimate=1 / interlaced=0 / bluray_compat=0 / constrained_intra=0 / bframes=9 / b_pyramid=2 / b_adapt=2 / b_bias=0 / direct=1 / weightb=1 / open_gop=0 / weightp=2 / keyint=250 / keyint_min=23 / scenecut=40 / intra_refresh=0 / rc=crf / mbtree=0 / crf=15.5000 / qcomp=0.72 / qpmin=0 / qpmax=81 / qpstep=4 / ip_ratio=1.40 / pb_ratio=1.30 / aq=1:0.85
Language                                 : Japanese
Default                                  : Yes
Forced                                   : No
Color range                              : Limited
Color primaries                          : BT.709
Transfer characteristics                 : BT.709
Matrix coefficients                      : BT.709

Audio
ID                                       : 2
Format                                   : FLAC
Format/Info                              : Free Lossless Audio Codec
Codec ID                                 : A_FLAC
Duration                                 : 24 min 11 s
Bit rate mode                            : Variable
Bit rate                                 : 1 318 kb/s
Channel(s)                               : 2 channels
Channel layout                           : L R
Sampling rate                            : 48.0 kHz
Frame rate                               : 11.719 FPS (4096 SPF)
Bit depth                                : 24 bits
Compression mode                         : Lossless
Stream size                              : 228 MiB (12%)
Title                                    : PCM->FLAC
Writing library                          : libFLAC 1.2.1 (UTC 2007-09-17)
Language                                 : Japanese
Default                                  : Yes
Forced                                   : No

Text
ID                                       : 3
Format                                   : ASS
Codec ID                                 : S_TEXT/ASS
Codec ID/Info                            : Advanced Sub Station Alpha
Duration                                 : 23 min 55 s
Bit rate                                 : 751 b/s
Count of elements                        : 1272
Compression mode                         : Lossless
Stream size                              : 132 KiB (0%)
Language                                 : English
Default                                  : Yes
Forced                                   : No

Menu
00:00:00.000                             : en:OP
00:01:31.008                             : en:Part A
00:10:11.236                             : en:Part B
00:22:25.803                             : en:ED
00:23:55.809                             : en:Next

Other Files in this Torrent
[Asakura] Net-juu no Susume 03 [43CE2554].mkv
beta
Anime DDL+NZB mirror
Current Time: 29/05/2024 20:27



About/FAQs

Discord