[AnimeRG] One-Punch Man - OVA 02 - The Pupil Who Is an Extremely Poor Talker [720p] [x265] [pseudo].mkv


File Size64.24 MB (67,355,398 bytes)
DownloadGo4Up | Jheberg | MultiUp
  • ClickNupload
  • Fichier
  • Filerio
  • Free
  • Fufox
  • HugeFiles
  • Mightyupload
  • ToutBox
  • Turbobit
  • UpToBox
  • Uplea
  • UploadBaz
  • Uploadable
  • Uploaded
  • Uppit
  • Userscloud
  • ZippyShare
| OpenLoad | Sendspace | SolidFiles | UsersCloud
HashesCRC32: 6C517B1E, MD5: 4EA458197C1C6F11416768B1B52E54FF, SHA1: E71F0DFE83A2338C8768F3070EE4B99182CE2EC8, SHA256: BACE7B794968D09EA0F6749C1AAAC56A507678300F751FB538FA8BB58D77C393, ED2K: EA1995FB27864A8D0A854356327418D0
Screenshots
screenshotscreenshotscreenshotscreenshotscreenshot
SubtitlesAll Attachments | English Full (ASS) [eng, ASS], English Full (SRT [eng, SRT], English Full (BD) [eng, PGS], Japanese Full (BD) [jpn, PGS]
Additional Info
General
Unique ID                                : 193384520621398371411385619653341619215 (0x917C80FFE3D9EABD943E92488D42240F)
Complete name                            : [AnimeRG] One-Punch Man - OVA 02 - The Pupil Who Is an Extremely Poor Talker [720p] [x265] [pseudo].mkv
Format                                   : Matroska
Format version                           : Version 4 / Version 2
File size                                : 64.2 MiB
Duration                                 : 11 min 39 s
Overall bit rate                         : 770 kb/s
Encoded date                             : UTC 2016-11-10 20:29:32
Writing application                      : mkvmerge v9.2.0 ('Photograph') 64bit
Writing library                          : libebml v1.3.3 + libmatroska v1.4.4
Attachments                              : OpenSans-Semibold.ttf

Video
ID                                       : 1
Format                                   : HEVC
Format/Info                              : High Efficiency Video Coding
Format profile                           : Main@L4@Main
Codec ID                                 : V_MPEGH/ISO/HEVC
Duration                                 : 11 min 39 s
Bit rate                                 : 476 kb/s
Width                                    : 1 280 pixels
Height                                   : 720 pixels
Display aspect ratio                     : 16:9
Frame rate mode                          : Constant
Frame rate                               : 23.976 (24000/1001) FPS
Color space                              : YUV
Chroma subsampling                       : 4:2:0
Bit depth                                : 8 bits
Bits/(Pixel*Frame)                       : 0.022
Stream size                              : 39.8 MiB (62%)
Writing library                          : x265 2.0+2-70581d6cd065:[Windows][MSVC 1900][64 bit] 8bit
Encoding settings                        : wpp / ctu=64 / min-cu-size=8 / max-tu-size=32 / tu-intra-depth=1 / tu-inter-depth=1 / me=1 / subme=7 / merange=57 / no-rect / no-amp / max-merge=2 / temporal-mvp / early-skip / rskip / rdpenalty=0 / no-tskip / no-tskip-fast / strong-intra-smoothing / no-lossless / no-cu-lossless / no-constrained-intra / fast-intra / open-gop / no-temporal-layers / interlace=0 / keyint=240 / min-keyint=23 / scenecut=40 / rc-lookahead=240 / lookahead-slices=4 / bframes=16 / bframe-bias=0 / b-adapt=2 / ref=6 / limit-refs=3 / no-limit-modes / weightp / weightb / aq-mode=2 / qg-size=64 / aq-strength=1.00 / cbqpoffs=0 / crqpoffs=0 / rd=3 / psy-rd=2.00 / rdoq-level=0 / psy-rdoq=0.00 / no-rd-refine / signhide / deblock=1:1 / sao / no-sao-non-deblock / b-pyramid / cutree / no-intra-refresh / rc=crf / crf=23.0 / qcomp=0.60 / qpmin=0 / qpmax=51 / qpstep=4 / vbv-maxrate=3000 / vbv-bufsize=720 / crf-max=35.0 / ipratio=1.40 / pbratio=1.30
Default                                  : Yes
Forced                                   : No
Color range                              : Limited
Color primaries                          : BT.709
Transfer characteristics                 : BT.709
Matrix coefficients                      : BT.709

Audio
ID                                       : 2
Format                                   : AAC
Format/Info                              : Advanced Audio Codec
Format profile                           : LC
Codec ID                                 : A_AAC
Duration                                 : 11 min 39 s
Bit rate                                 : 99.2 kb/s
Channel(s)                               : 2 channels
Channel positions                        : Front: L R
Sampling rate                            : 48.0 kHz
Frame rate                               : 46.875 FPS (1024 spf)
Compression mode                         : Lossy
Delay relative to video                  : 20 ms
Stream size                              : 8.28 MiB (13%)
Title                                    : Japanese Stereo
Language                                 : Japanese
Default                                  : Yes
Forced                                   : No

Text #1
ID                                       : 3
Format                                   : ASS
Codec ID                                 : S_TEXT/ASS
Codec ID/Info                            : Advanced Sub Station Alpha
Duration                                 : 10 min 1 s
Bit rate                                 : 154 b/s
Count of elements                        : 196
Compression mode                         : Lossless
Stream size                              : 11.4 KiB (0%)
Title                                    : English Full (ASS)
Language                                 : English
Default                                  : Yes
Forced                                   : No

Text #2
ID                                       : 4
Format                                   : UTF-8
Codec ID                                 : S_TEXT/UTF8
Codec ID/Info                            : UTF-8 Plain Text
Duration                                 : 11 min 37 s
Bit rate                                 : 81 b/s
Count of elements                        : 221
Stream size                              : 6.97 KiB (0%)
Title                                    : English Full (SRT
Language                                 : English
Default                                  : No
Forced                                   : No

Text #3
ID                                       : 5
Format                                   : PGS
Muxing mode                              : zlib
Codec ID                                 : S_HDMV/PGS
Codec ID/Info                            : Picture based subtitle format used on BDs/HD-DVDs
Duration                                 : 10 min 1 s
Bit rate                                 : 72.0 kb/s
Count of elements                        : 1037
Stream size                              : 5.17 MiB (8%)
Title                                    : English Full (BD)
Language                                 : English
Default                                  : No
Forced                                   : No

Text #4
ID                                       : 6
Format                                   : PGS
Muxing mode                              : zlib
Codec ID                                 : S_HDMV/PGS
Codec ID/Info                            : Picture based subtitle format used on BDs/HD-DVDs
Duration                                 : 9 min 55 s
Bit rate                                 : 149 kb/s
Count of elements                        : 1116
Stream size                              : 10.5 MiB (16%)
Title                                    : Japanese Full (BD)
Language                                 : Japanese
Default                                  : No
Forced                                   : No

Menu
00:00:00.000                             : en:00:00:00.000
00:10:05.021                             : en:00:10:05.021

Other Files in this Torrent
[AnimeRG] One-Punch Man - OVA 02 - The Pupil Who Is an Extremely Poor Talker [720p] [x265] [pseudo].mkv
beta
Anime DDL+NZB mirror
Current Time: 05/12/2021 11:33



About/FAQs

Discord