[AnimeRG] One-Punch Man - OVA 04 - Bang, Who Is Too Overbearing [720p] [x265] [pseudo].mkv


File Size80.25 MB (84,153,421 bytes)
DownloadGo4Up | Jheberg | MultiUp
  • ClickNupload
  • Fichier
  • Filerio
  • Free
  • Fufox
  • HugeFiles
  • Mightyupload
  • ToutBox
  • Turbobit
  • UpToBox
  • Uplea
  • UploadBaz
  • Uploadable
  • Uploaded
  • Uppit
  • Userscloud
  • ZippyShare
| OpenLoad | Sendspace | SolidFiles | UsersCloud
HashesCRC32: 89644FE9, MD5: 156189108E1D1A4B4D11C020D3838C4C, SHA1: EAC1F0AE53586482FB1C082F831F764757FD1E94, SHA256: 25C9F0A3DF2D2D7F2C7196111EAE47CA592767673064AD5A213A4D68F711A130, ED2K: 62AF908AF784A1FFC35455F0F057A350
Screenshots
screenshotscreenshotscreenshotscreenshotscreenshot
SubtitlesAll Attachments | English Full (ASS) [eng, ASS], English Full (SRT) [eng, SRT], English Full (BD) [eng, PGS], Japanese Full (BD) [jpn, PGS]
Additional Info
General
Unique ID                                : 190726270282510233219421118474046120496 (0x8F7C8B2397812226A1183F96FE0BA230)
Complete name                            : [AnimeRG] One-Punch Man - OVA 04 - Bang, Who Is Too Overbearing [720p] [x265] [pseudo].mkv
Format                                   : Matroska
Format version                           : Version 4 / Version 2
File size                                : 80.3 MiB
Duration                                 : 12 min 6 s
Overall bit rate                         : 926 kb/s
Encoded date                             : UTC 2016-11-10 20:29:41
Writing application                      : mkvmerge v9.2.0 ('Photograph') 64bit
Writing library                          : libebml v1.3.3 + libmatroska v1.4.4
Attachments                              : OpenSans-Semibold.ttf

Video
ID                                       : 1
Format                                   : HEVC
Format/Info                              : High Efficiency Video Coding
Format profile                           : Main@L4@Main
Codec ID                                 : V_MPEGH/ISO/HEVC
Duration                                 : 12 min 6 s
Bit rate                                 : 630 kb/s
Width                                    : 1 280 pixels
Height                                   : 720 pixels
Display aspect ratio                     : 16:9
Frame rate mode                          : Constant
Frame rate                               : 23.976 (24000/1001) FPS
Color space                              : YUV
Chroma subsampling                       : 4:2:0
Bit depth                                : 8 bits
Bits/(Pixel*Frame)                       : 0.028
Stream size                              : 54.6 MiB (68%)
Writing library                          : x265 2.0+2-70581d6cd065:[Windows][MSVC 1900][64 bit] 8bit
Encoding settings                        : wpp / ctu=64 / min-cu-size=8 / max-tu-size=32 / tu-intra-depth=1 / tu-inter-depth=1 / me=1 / subme=7 / merange=57 / no-rect / no-amp / max-merge=2 / temporal-mvp / early-skip / rskip / rdpenalty=0 / no-tskip / no-tskip-fast / strong-intra-smoothing / no-lossless / no-cu-lossless / no-constrained-intra / fast-intra / open-gop / no-temporal-layers / interlace=0 / keyint=240 / min-keyint=23 / scenecut=40 / rc-lookahead=240 / lookahead-slices=4 / bframes=16 / bframe-bias=0 / b-adapt=2 / ref=6 / limit-refs=3 / no-limit-modes / weightp / weightb / aq-mode=2 / qg-size=64 / aq-strength=1.00 / cbqpoffs=0 / crqpoffs=0 / rd=3 / psy-rd=2.00 / rdoq-level=0 / psy-rdoq=0.00 / no-rd-refine / signhide / deblock=1:1 / sao / no-sao-non-deblock / b-pyramid / cutree / no-intra-refresh / rc=crf / crf=23.0 / qcomp=0.60 / qpmin=0 / qpmax=51 / qpstep=4 / vbv-maxrate=3000 / vbv-bufsize=720 / crf-max=35.0 / ipratio=1.40 / pbratio=1.30
Default                                  : Yes
Forced                                   : No
Color range                              : Limited
Color primaries                          : BT.709
Transfer characteristics                 : BT.709
Matrix coefficients                      : BT.709

Audio
ID                                       : 2
Format                                   : AAC
Format/Info                              : Advanced Audio Codec
Format profile                           : LC
Codec ID                                 : A_AAC
Duration                                 : 12 min 6 s
Bit rate                                 : 100 kb/s
Channel(s)                               : 2 channels
Channel positions                        : Front: L R
Sampling rate                            : 48.0 kHz
Frame rate                               : 46.875 FPS (1024 spf)
Compression mode                         : Lossy
Delay relative to video                  : 20 ms
Stream size                              : 8.66 MiB (11%)
Title                                    : Japanese Stereo
Language                                 : Japanese
Default                                  : Yes
Forced                                   : No

Text #1
ID                                       : 3
Format                                   : ASS
Codec ID                                 : S_TEXT/ASS
Codec ID/Info                            : Advanced Sub Station Alpha
Duration                                 : 10 min 13 s
Bit rate                                 : 171 b/s
Count of elements                        : 205
Compression mode                         : Lossless
Stream size                              : 12.8 KiB (0%)
Title                                    : English Full (ASS)
Language                                 : English
Default                                  : Yes
Forced                                   : No

Text #2
ID                                       : 4
Format                                   : UTF-8
Codec ID                                 : S_TEXT/UTF8
Codec ID/Info                            : UTF-8 Plain Text
Duration                                 : 10 min 13 s
Bit rate                                 : 88 b/s
Count of elements                        : 205
Stream size                              : 6.66 KiB (0%)
Title                                    : English Full (SRT)
Language                                 : English
Default                                  : No
Forced                                   : No

Text #3
ID                                       : 5
Format                                   : PGS
Muxing mode                              : zlib
Codec ID                                 : S_HDMV/PGS
Codec ID/Info                            : Picture based subtitle format used on BDs/HD-DVDs
Duration                                 : 10 min 13 s
Bit rate                                 : 78.1 kb/s
Count of elements                        : 1028
Stream size                              : 5.71 MiB (7%)
Title                                    : English Full (BD)
Language                                 : English
Default                                  : No
Forced                                   : No

Text #4
ID                                       : 6
Format                                   : PGS
Muxing mode                              : zlib
Codec ID                                 : S_HDMV/PGS
Codec ID/Info                            : Picture based subtitle format used on BDs/HD-DVDs
Duration                                 : 10 min 13 s
Bit rate                                 : 148 kb/s
Count of elements                        : 1096
Stream size                              : 10.8 MiB (13%)
Title                                    : Japanese Full (BD)
Language                                 : Japanese
Default                                  : No
Forced                                   : No

Menu
00:00:00.000                             : en:00:00:00.000
00:10:31.047                             : en:00:10:31.047

Other Files in this Torrent
[AnimeRG] One-Punch Man - OVA 04 - Bang, Who Is Too Overbearing [720p] [x265] [pseudo].mkv
beta
Anime DDL+NZB mirror
Current Time: 08/08/2022 11:28



About/FAQs

Discord