[AnimeRG] One-Punch Man - OAD - Road to Hero [576p] [x265] [pseudo].mkv


File Size138.6 MB (145,339,052 bytes)
DownloadGo4Up | Jheberg | MultiUp
  • ClickNupload
  • Fichier
  • Filerio
  • Free
  • Fufox
  • HugeFiles
  • Mightyupload
  • ToutBox
  • Turbobit
  • UpToBox
  • Uplea
  • UploadBaz
  • Uploadable
  • Uploaded
  • Uppit
  • Userscloud
  • ZippyShare
| OpenLoad | Sendspace | SolidFiles | UsersCloud
HashesCRC32: 16294096, MD5: F57481C65FCF186E6496A78C34F35AD1, SHA1: DC336F07AD61F35AD7E37569CF9DA6DB3B418054, SHA256: 6B0A47B973A0E0A1BFE91796F475B3699FA339BDB11DF2A3C9FA094914D05F53, ED2K: C39439FF5FBD92ABB190ADB264220BC0
Screenshots
screenshotscreenshotscreenshotscreenshotscreenshot
SubtitlesAll Attachments | English Full (ASS) [eng, ASS], English Full (SRT) [eng, SRT], English Full (BD) [eng, PGS]
Additional Info
General
Unique ID                                : 189007398018420133817279915035074140602 (0x8E318031822AACE891A9D8CD9C2699BA)
Complete name                            : [AnimeRG] One-Punch Man - OAD - Road to Hero [576p] [x265] [pseudo].mkv
Format                                   : Matroska
Format version                           : Version 4 / Version 2
File size                                : 139 MiB
Duration                                 : 23 min 59 s
Overall bit rate                         : 807 kb/s
Encoded date                             : UTC 2016-11-10 20:06:04
Writing application                      : mkvmerge v9.2.0 ('Photograph') 64bit
Writing library                          : libebml v1.3.3 + libmatroska v1.4.4
Attachments                              : OpenSans-Semibold.ttf

Video
ID                                       : 1
Format                                   : HEVC
Format/Info                              : High Efficiency Video Coding
Format profile                           : Main@L5@Main
Codec ID                                 : V_MPEGH/ISO/HEVC
Duration                                 : 23 min 59 s
Bit rate                                 : 685 kb/s
Width                                    : 1 024 pixels
Height                                   : 576 pixels
Display aspect ratio                     : 16:9
Frame rate mode                          : Constant
Frame rate                               : 23.976 (24000/1001) FPS
Color space                              : YUV
Chroma subsampling                       : 4:2:0
Bit depth                                : 8 bits
Bits/(Pixel*Frame)                       : 0.048
Stream size                              : 118 MiB (85%)
Default                                  : Yes
Forced                                   : No

Audio
ID                                       : 2
Format                                   : AAC
Format/Info                              : Advanced Audio Codec
Format profile                           : LC
Codec ID                                 : A_AAC
Duration                                 : 23 min 59 s
Bit rate                                 : 99.0 kb/s
Channel(s)                               : 2 channels
Channel positions                        : Front: L R
Sampling rate                            : 48.0 kHz
Frame rate                               : 46.875 FPS (1024 spf)
Compression mode                         : Lossy
Delay relative to video                  : 20 ms
Stream size                              : 17.0 MiB (12%)
Title                                    : Japanese Stereo
Language                                 : Japanese
Default                                  : Yes
Forced                                   : No

Text #1
ID                                       : 3
Format                                   : ASS
Codec ID                                 : S_TEXT/ASS
Codec ID/Info                            : Advanced Sub Station Alpha
Duration                                 : 23 min 48 s
Bit rate                                 : 137 b/s
Count of elements                        : 360
Compression mode                         : Lossless
Stream size                              : 23.9 KiB (0%)
Title                                    : English Full (ASS)
Language                                 : English
Default                                  : Yes
Forced                                   : No

Text #2
ID                                       : 4
Format                                   : UTF-8
Codec ID                                 : S_TEXT/UTF8
Codec ID/Info                            : UTF-8 Plain Text
Duration                                 : 23 min 48 s
Bit rate                                 : 94 b/s
Count of elements                        : 360
Stream size                              : 16.4 KiB (0%)
Title                                    : English Full (SRT)
Language                                 : English
Default                                  : No
Forced                                   : No

Text #3
ID                                       : 5
Format                                   : PGS
Muxing mode                              : zlib
Codec ID                                 : S_HDMV/PGS
Codec ID/Info                            : Picture based subtitle format used on BDs/HD-DVDs
Duration                                 : 23 min 47 s
Bit rate                                 : 19.1 kb/s
Count of elements                        : 1314
Stream size                              : 3.26 MiB (2%)
Title                                    : English Full (BD)
Language                                 : English
Default                                  : No
Forced                                   : No

Menu
00:00:00.000                             : en:AVANT
00:01:18.978                             : en:OPENING
00:02:49.035                             : en:PART A
00:11:00.993                             : en:PART B
00:22:30.916                             : en:ENDING

Other Files in this Torrent
[AnimeRG] One-Punch Man - OAD - Road to Hero [576p] [x265] [pseudo].mkv
beta
Anime DDL+NZB mirror
Current Time: 02/12/2021 23:17



About/FAQs

Discord