[AnimeRG] One-Punch Man - OVA 05 - The Sisters Who Have Too Many Things Happening [720p] [x265] [pseudo].mkv


File Size79.41 MB (83,266,195 bytes)
DownloadGo4Up | Jheberg | MultiUp | OpenLoad | Sendspace | SolidFiles | UsersCloud
HashesCRC32: 4EE7EEE1, MD5: CC595BF1BEB54412BA4882B3187BFE08, SHA1: AEEB27DFD6CC7213F5A6D9BC373FC48BFDC78105, SHA256: 9EEFA4BF0EFB5964F8D4175111C91142FBC343F9D54CE23241618A6693254841, ED2K: DAD1F7FF48E8B4BA68156AF30945DD52
Screenshots
screenshotscreenshotscreenshotscreenshotscreenshot
SubtitlesAll Attachments | English Full (ASS) [eng, ASS], English Full (SRT) [eng, SRT], English Full (BD) [eng, PGS], Japanese Full (BD) [jpn, PGS]
Additional Info
General
Unique ID                                : 224482061129521032851841171244188752529 (0xA8E1AC1F2D1B695A8EE676AE4B90DA91)
Complete name                            : [AnimeRG] One-Punch Man - OVA 05 - The Sisters Who Have Too Many Things Happening [720p] [x265] [pseudo].mkv
Format                                   : Matroska
Format version                           : Version 4 / Version 2
File size                                : 79.4 MiB
Duration                                 : 11 min 54 s
Overall bit rate                         : 932 kb/s
Encoded date                             : UTC 2016-11-10 20:29:46
Writing application                      : mkvmerge v9.2.0 ('Photograph') 64bit
Writing library                          : libebml v1.3.3 + libmatroska v1.4.4
Attachments                              : OpenSans-Semibold.ttf

Video
ID                                       : 1
Format                                   : HEVC
Format/Info                              : High Efficiency Video Coding
Format profile                           : Main@L4@Main
Codec ID                                 : V_MPEGH/ISO/HEVC
Duration                                 : 11 min 54 s
Bit rate                                 : 692 kb/s
Width                                    : 1 280 pixels
Height                                   : 720 pixels
Display aspect ratio                     : 16:9
Frame rate mode                          : Constant
Frame rate                               : 23.976 (24000/1001) FPS
Color space                              : YUV
Chroma subsampling                       : 4:2:0
Bit depth                                : 8 bits
Bits/(Pixel*Frame)                       : 0.031
Stream size                              : 59.0 MiB (74%)
Writing library                          : x265 2.0+2-70581d6cd065:[Windows][MSVC 1900][64 bit] 8bit
Encoding settings                        : wpp / ctu=64 / min-cu-size=8 / max-tu-size=32 / tu-intra-depth=1 / tu-inter-depth=1 / me=1 / subme=7 / merange=57 / no-rect / no-amp / max-merge=2 / temporal-mvp / early-skip / rskip / rdpenalty=0 / no-tskip / no-tskip-fast / strong-intra-smoothing / no-lossless / no-cu-lossless / no-constrained-intra / fast-intra / open-gop / no-temporal-layers / interlace=0 / keyint=240 / min-keyint=23 / scenecut=40 / rc-lookahead=240 / lookahead-slices=4 / bframes=16 / bframe-bias=0 / b-adapt=2 / ref=6 / limit-refs=3 / no-limit-modes / weightp / weightb / aq-mode=2 / qg-size=64 / aq-strength=1.00 / cbqpoffs=0 / crqpoffs=0 / rd=3 / psy-rd=2.00 / rdoq-level=0 / psy-rdoq=0.00 / no-rd-refine / signhide / deblock=1:1 / sao / no-sao-non-deblock / b-pyramid / cutree / no-intra-refresh / rc=crf / crf=23.0 / qcomp=0.60 / qpmin=0 / qpmax=51 / qpstep=4 / vbv-maxrate=3000 / vbv-bufsize=720 / crf-max=35.0 / ipratio=1.40 / pbratio=1.30
Default                                  : Yes
Forced                                   : No
Color range                              : Limited
Color primaries                          : BT.709
Transfer characteristics                 : BT.709
Matrix coefficients                      : BT.709

Audio
ID                                       : 2
Format                                   : AAC
Format/Info                              : Advanced Audio Codec
Format profile                           : LC
Codec ID                                 : A_AAC
Duration                                 : 11 min 54 s
Bit rate                                 : 101 kb/s
Channel(s)                               : 2 channels
Channel positions                        : Front: L R
Sampling rate                            : 48.0 kHz
Frame rate                               : 46.875 FPS (1024 spf)
Compression mode                         : Lossy
Delay relative to video                  : 20 ms
Stream size                              : 8.60 MiB (11%)
Title                                    : Japanese Stereo
Language                                 : Japanese
Default                                  : Yes
Forced                                   : No

Text #1
ID                                       : 3
Format                                   : ASS
Codec ID                                 : S_TEXT/ASS
Codec ID/Info                            : Advanced Sub Station Alpha
Duration                                 : 10 min 9 s
Bit rate                                 : 132 b/s
Count of elements                        : 169
Compression mode                         : Lossless
Stream size                              : 9.85 KiB (0%)
Title                                    : English Full (ASS)
Language                                 : English
Default                                  : Yes
Forced                                   : No

Text #2
ID                                       : 4
Format                                   : UTF-8
Codec ID                                 : S_TEXT/UTF8
Codec ID/Info                            : UTF-8 Plain Text
Duration                                 : 10 min 9 s
Bit rate                                 : 64 b/s
Count of elements                        : 169
Stream size                              : 4.81 KiB (0%)
Title                                    : English Full (SRT)
Language                                 : English
Default                                  : No
Forced                                   : No

Text #3
ID                                       : 5
Format                                   : PGS
Muxing mode                              : zlib
Codec ID                                 : S_HDMV/PGS
Codec ID/Info                            : Picture based subtitle format used on BDs/HD-DVDs
Duration                                 : 10 min 9 s
Bit rate                                 : 55.9 kb/s
Count of elements                        : 816
Stream size                              : 4.06 MiB (5%)
Title                                    : English Full (BD)
Language                                 : English
Default                                  : No
Forced                                   : No

Text #4
ID                                       : 6
Format                                   : PGS
Muxing mode                              : zlib
Codec ID                                 : S_HDMV/PGS
Codec ID/Info                            : Picture based subtitle format used on BDs/HD-DVDs
Duration                                 : 10 min 12 s
Bit rate                                 : 100 kb/s
Count of elements                        : 911
Stream size                              : 7.32 MiB (9%)
Title                                    : Japanese Full (BD)
Language                                 : Japanese
Default                                  : No
Forced                                   : No

Menu
00:00:00.000                             : en:00:00:00.000
00:10:16.032                             : en:00:10:16.032

Other Files in this Torrent
[AnimeRG] One-Punch Man - OVA 05 - The Sisters Who Have Too Many Things Happening [720p] [x265] [pseudo].mkv
beta
Anime DDL+NZB mirror
Current Time: 05/12/2021 10:30



About/FAQs

Discord