File Size1.075 GB (1,154,739,737 bytes)
DownloadUpfile.mobi
ClickNUpload: Part1, Part2
Jheberg: Part1, Part2
MultiUp: Part1, Part2
OpenLoad: Part1, Part2
Sendspace: Part1, Part2, Part3, Part4
SolidFiles: Part1, Part2, Part3
HashesCRC32: 8A34B664, MD5: FB9943823C997FDE37FA308880C0E03D, SHA1: 2733BC1D88948FEFE8EFE7F24262D6603D37F17A, SHA256: D049339614E50A79CB873E4B6CD4C2CC9E7291A655A9D1BC2BA68EB6D35ACC9E, ED2K: 9215EE676D86CC00033EDB886A23BC17
Screenshots
screenshotscreenshotscreenshotscreenshotscreenshot
Additional Info
General
Unique ID                                : 254495061343557071970693629402381433032 (0xBF75F74773BBE4A19816F8869AFE38C8)
Complete name                            : 03 - Ougi Dark.mkv
Format                                   : Matroska
Format version                           : Version 2
File size                                : 1.08 GiB
Duration                                 : 1 h 12 min
Overall bit rate                         : 2 135 kb/s
Encoded date                             : UTC 2017-12-31 09:14:26
Writing application                      : mkvmerge v8.5.2 ('Crosses') 32bit
Writing library                          : libebml v1.3.3 + libmatroska v1.4.4

Video
ID                                       : 1
Format                                   : AVC
Format/Info                              : Advanced Video Codec
Format profile                           : High 10@L3.1
Format settings, CABAC                   : Yes
Format settings, ReFrames                : 4 frames
Codec ID                                 : V_MPEG4/ISO/AVC
Duration                                 : 1 h 12 min
Bit rate                                 : 1 815 kb/s
Width                                    : 1 280 pixels
Height                                   : 720 pixels
Display aspect ratio                     : 16:9
Frame rate mode                          : Constant
Frame rate                               : 23.976 (24000/1001) FPS
Color space                              : YUV
Chroma subsampling                       : 4:2:0
Bit depth                                : 10 bits
Scan type                                : Progressive
Bits/(Pixel*Frame)                       : 0.082
Stream size                              : 936 MiB (85%)
Writing library                          : x264 core 148 r2744 b97ae06
Encoding settings                        : cabac=1 / ref=3 / deblock=1:1:-1 / analyse=0x3:0x113 / me=hex / subme=7 / psy=1 / psy_rd=1.00:0.00 / mixed_ref=1 / me_range=16 / chroma_me=1 / trellis=1 / 8x8dct=1 / cqm=0 / deadzone=21,11 / fast_pskip=1 / chroma_qp_offset=-2 / threads=3 / lookahead_threads=1 / sliced_threads=0 / nr=0 / decimate=1 / interlaced=0 / bluray_compat=0 / constrained_intra=0 / bframes=3 / b_pyramid=2 / b_adapt=1 / b_bias=0 / direct=1 / weightb=1 / open_gop=0 / weightp=2 / keyint=240 / keyint_min=23 / scenecut=40 / intra_refresh=0 / rc_lookahead=40 / rc=crf / mbtree=1 / crf=15.0 / qcomp=0.60 / qpmin=0 / qpmax=81 / qpstep=4 / ip_ratio=1.40 / aq=1:1.00
Default                                  : Yes
Forced                                   : No

Audio
ID                                       : 2
Format                                   : AAC
Format/Info                              : Advanced Audio Codec
Format profile                           : LC
Codec ID                                 : A_AAC
Duration                                 : 1 h 12 min
Bit rate                                 : 318 kb/s
Channel(s)                               : 2 channels
Channel positions                        : Front: L R
Sampling rate                            : 48.0 kHz
Frame rate                               : 46.875 FPS (1024 spf)
Compression mode                         : Lossy
Delay relative to video                  : 9 ms
Stream size                              : 164 MiB (15%)
Language                                 : Japanese
Default                                  : Yes
Forced                                   : No

Menu
00:00:00.000                             : en:00:00:00.000
00:01:49.026                             : en:00:01:49.026
00:03:18.990                             : en:00:03:18.990
00:03:21.993                             : en:00:03:21.993
00:06:29.431                             : en:00:06:29.431
00:08:57.078                             : en:00:08:57.078
00:11:24.475                             : en:00:11:24.475
00:14:50.056                             : en:00:14:50.056
00:19:08.105                             : en:00:19:08.105
00:22:20.047                             : en:00:22:20.047
00:23:52.056                             : en:00:23:52.056
00:25:22.521                             : en:00:25:22.521
00:25:25.524                             : en:00:25:25.524
00:31:48.490                             : en:00:31:48.490
00:41:27.193                             : en:00:41:27.193
00:45:42.531                             : en:00:45:42.531
00:47:15.041                             : en:00:47:15.041
00:52:19.011                             : en:00:52:19.011
00:53:48.976                             : en:00:53:48.976
00:53:51.979                             : en:00:53:51.979
01:02:12.020                             : en:01:02:12.020
01:10:22.385                             : en:01:10:22.385

Other Files in this Torrent
03 - Ougi Dark.mkv
beta
Anime DDL+NZB mirror
Current Time: 20/05/2022 03:20



About/FAQs

Discord