File Size796.9 MB (835,584,030 bytes)
DownloadClickNUpload | Jheberg | MultiUp
  • ClickNupload
  • Fichier
  • Filerio
  • Free
  • Fufox
  • HugeFiles
  • Mightyupload
  • ToutBox
  • Turbobit
  • UpToBox
  • Uplea
  • UploadBaz
  • Uploadable
  • Uploaded
  • Uppit
  • Userscloud
| OpenLoad | Upfile.mobi
Sendspace: Part1, Part2, Part3
SolidFiles: Part1, Part2
HashesCRC32: 534EAEF0, MD5: 706B2401573F74E10CD8DD9FB1D4671A, SHA1: 08F90586D8528A29781DFA9B4DE11CD93472D415, SHA256: 20E0686FAC629D83AF50697758697D29BD012C6A95A940C7AE3D1E1A098081BF, ED2K: A5666B92989127DD729A95875FB99B07
Screenshots
screenshotscreenshotscreenshotscreenshotscreenshot
Additional Info
General
Unique ID                                : 182354107402744971540782302193413601814 (0x89301FA3C8B32F1E81422888B13D3A16)
Complete name                            : 02 - Hitagi Rendezvous.mkv
Format                                   : Matroska
Format version                           : Version 2
File size                                : 797 MiB
Duration                                 : 48 min 13 s
Overall bit rate                         : 2 310 kb/s
Encoded date                             : UTC 2017-12-08 21:39:14
Writing application                      : mkvmerge v8.5.2 ('Crosses') 32bit
Writing library                          : libebml v1.3.3 + libmatroska v1.4.4

Video
ID                                       : 1
Format                                   : AVC
Format/Info                              : Advanced Video Codec
Format profile                           : High 10@L3.1
Format settings, CABAC                   : Yes
Format settings, ReFrames                : 4 frames
Codec ID                                 : V_MPEG4/ISO/AVC
Duration                                 : 48 min 13 s
Bit rate                                 : 1 990 kb/s
Width                                    : 1 280 pixels
Height                                   : 720 pixels
Display aspect ratio                     : 16:9
Frame rate mode                          : Constant
Frame rate                               : 23.976 (24000/1001) FPS
Color space                              : YUV
Chroma subsampling                       : 4:2:0
Bit depth                                : 10 bits
Scan type                                : Progressive
Bits/(Pixel*Frame)                       : 0.090
Stream size                              : 686 MiB (86%)
Writing library                          : x264 core 148 r2744 b97ae06
Encoding settings                        : cabac=1 / ref=3 / deblock=1:1:-1 / analyse=0x3:0x113 / me=hex / subme=7 / psy=1 / psy_rd=1.00:0.00 / mixed_ref=1 / me_range=16 / chroma_me=1 / trellis=1 / 8x8dct=1 / cqm=0 / deadzone=21,11 / fast_pskip=1 / chroma_qp_offset=-2 / threads=3 / lookahead_threads=1 / sliced_threads=0 / nr=0 / decimate=1 / interlaced=0 / bluray_compat=0 / constrained_intra=0 / bframes=3 / b_pyramid=2 / b_adapt=1 / b_bias=0 / direct=1 / weightb=1 / open_gop=0 / weightp=2 / keyint=240 / keyint_min=23 / scenecut=40 / intra_refresh=0 / rc_lookahead=40 / rc=crf / mbtree=1 / crf=15.0 / qcomp=0.60 / qpmin=0 / qpmax=81 / qpstep=4 / ip_ratio=1.40 / aq=1:1.00
Default                                  : Yes
Forced                                   : No

Audio
ID                                       : 2
Format                                   : AAC
Format/Info                              : Advanced Audio Codec
Format profile                           : LC
Codec ID                                 : A_AAC
Duration                                 : 48 min 13 s
Bit rate                                 : 318 kb/s
Channel(s)                               : 2 channels
Channel positions                        : Front: L R
Sampling rate                            : 48.0 kHz
Frame rate                               : 46.875 FPS (1024 spf)
Compression mode                         : Lossy
Delay relative to video                  : 9 ms
Stream size                              : 110 MiB (14%)
Language                                 : Japanese
Default                                  : Yes
Forced                                   : No

Menu
00:00:00.000                             : en:00:00:00.000
00:01:50.027                             : en:00:01:50.027
00:03:20.075                             : en:00:03:20.075
00:03:23.078                             : en:00:03:23.078
00:06:53.538                             : en:00:06:53.538
00:13:46.034                             : en:00:13:46.034
00:17:27.296                             : en:00:17:27.296
00:22:30.099                             : en:00:22:30.099
00:24:02.608                             : en:00:24:02.608
00:25:32.656                             : en:00:25:32.656
00:25:35.659                             : en:00:25:35.659
00:34:15.637                             : en:00:34:15.637
00:35:44.142                             : en:00:35:44.142
00:43:10.671                             : en:00:43:10.671
00:44:40.678                             : en:00:44:40.678

Other Files in this Torrent
02 - Hitagi Rendezvous.mkv
beta
Anime DDL+NZB mirror
Current Time: 05/12/2021 11:54



About/FAQs

Discord