File Size24.25 MB (25,425,271 bytes)
DownloadClickNUpload | Go4Up | Jheberg | MultiUp | OpenLoad | Sendspace | SolidFiles | Upfile.mobi
HashesCRC32: 63B59143, MD5: 7F3D2386C547FE963406BA4C7E0A5211, SHA1: 808201B492D148E0E832D60C5A40011E1DFE91F9, SHA256: 2B71B48B0E140F73B1C65918A06A2E547ACA9AD62BB326E2284FF4C98CC16EFD, ED2K: BD5B9626D25A7D4C9E3A5F0F22815DF6
Screenshots
screenshotscreenshot
Additional Info
General
Unique ID                                : 172018647407014436862940079607602333856 (0x8169961E88C57CD282E6A1A850F1C8A0)
Complete name                            : Clean Opening 3.mkv
Format                                   : Matroska
Format version                           : Version 2
File size                                : 24.2 MiB
Duration                                 : 1 min 31 s
Overall bit rate                         : 2 221 kb/s
Encoded date                             : UTC 2017-12-31 10:28:18
Writing application                      : mkvmerge v8.5.2 ('Crosses') 32bit
Writing library                          : libebml v1.3.3 + libmatroska v1.4.4

Video
ID                                       : 1
Format                                   : AVC
Format/Info                              : Advanced Video Codec
Format profile                           : High 10@L3.1
Format settings, CABAC                   : Yes
Format settings, ReFrames                : 4 frames
Codec ID                                 : V_MPEG4/ISO/AVC
Duration                                 : 1 min 31 s
Bit rate                                 : 1 906 kb/s
Width                                    : 1 280 pixels
Height                                   : 720 pixels
Display aspect ratio                     : 16:9
Frame rate mode                          : Constant
Frame rate                               : 23.976 FPS
Color space                              : YUV
Chroma subsampling                       : 4:2:0
Bit depth                                : 10 bits
Scan type                                : Progressive
Bits/(Pixel*Frame)                       : 0.086
Stream size                              : 20.8 MiB (86%)
Writing library                          : x264 core 148 r2744 b97ae06
Encoding settings                        : cabac=1 / ref=3 / deblock=1:1:-1 / analyse=0x3:0x113 / me=hex / subme=7 / psy=1 / psy_rd=1.00:0.00 / mixed_ref=1 / me_range=16 / chroma_me=1 / trellis=1 / 8x8dct=1 / cqm=0 / deadzone=21,11 / fast_pskip=1 / chroma_qp_offset=-2 / threads=3 / lookahead_threads=1 / sliced_threads=0 / nr=0 / decimate=1 / interlaced=0 / bluray_compat=0 / constrained_intra=0 / bframes=3 / b_pyramid=2 / b_adapt=1 / b_bias=0 / direct=1 / weightb=1 / open_gop=0 / weightp=2 / keyint=240 / keyint_min=23 / scenecut=40 / intra_refresh=0 / rc_lookahead=40 / rc=crf / mbtree=1 / crf=15.0 / qcomp=0.60 / qpmin=0 / qpmax=81 / qpstep=4 / ip_ratio=1.40 / aq=1:1.00
Default                                  : Yes
Forced                                   : No

Audio
ID                                       : 2
Format                                   : AAC
Format/Info                              : Advanced Audio Codec
Format profile                           : LC
Codec ID                                 : A_AAC
Duration                                 : 1 min 31 s
Bit rate                                 : 312 kb/s
Channel(s)                               : 2 channels
Channel positions                        : Front: L R
Sampling rate                            : 48.0 kHz
Frame rate                               : 46.875 FPS (1024 spf)
Compression mode                         : Lossy
Delay relative to video                  : 9 ms
Stream size                              : 3.41 MiB (14%)
Language                                 : English
Default                                  : Yes
Forced                                   : No

Other Files in this Torrent
Bluray Extras/Clean Opening 3.mkv
beta
Anime DDL+NZB mirror
Current Time: 05/12/2021 11:25



About/FAQs

Discord