File Size998.0 MB (1,046,531,172 bytes)
DownloadClickNUpload | Jheberg | MultiUp | OpenLoad | Upfile.mobi
Sendspace: Part1, Part2, Part3, Part4
SolidFiles: Part1, Part2
HashesCRC32: A648D7B1, MD5: 2A9B1189F9E2B074D5CC62497A61FC69, SHA1: 4A5CE843F0EB1BFF947E659DF205580C43A4FA6C, SHA256: D71E515F5A4A65CBF1CE0FC687E7D30CF7821D19D35D1C1D9BA34075B464E774, ED2K: A9637E6857B57669919C9EBB50C51B6C
Screenshots
screenshotscreenshotscreenshotscreenshotscreenshot
Additional Info
General
Unique ID                                : 184837618354099807769941026653860035216 (0x8B0E6E2EF07B07AE8FF0B5FAB4447A90)
Complete name                            : 01 - Mayoi Hell.mkv
Format                                   : Matroska
Format version                           : Version 2
File size                                : 998 MiB
Duration                                 : 48 min 13 s
Overall bit rate                         : 2 893 kb/s
Encoded date                             : UTC 2017-12-07 02:17:00
Writing application                      : mkvmerge v8.5.2 ('Crosses') 32bit
Writing library                          : libebml v1.3.3 + libmatroska v1.4.4

Video
ID                                       : 1
Format                                   : AVC
Format/Info                              : Advanced Video Codec
Format profile                           : High 10@L3.1
Format settings, CABAC                   : Yes
Format settings, ReFrames                : 4 frames
Codec ID                                 : V_MPEG4/ISO/AVC
Duration                                 : 48 min 13 s
Bit rate                                 : 2 573 kb/s
Width                                    : 1 280 pixels
Height                                   : 720 pixels
Display aspect ratio                     : 16:9
Frame rate mode                          : Constant
Frame rate                               : 23.976 (24000/1001) FPS
Color space                              : YUV
Chroma subsampling                       : 4:2:0
Bit depth                                : 10 bits
Scan type                                : Progressive
Bits/(Pixel*Frame)                       : 0.116
Stream size                              : 888 MiB (89%)
Writing library                          : x264 core 148 r2744 b97ae06
Encoding settings                        : cabac=1 / ref=3 / deblock=1:1:-1 / analyse=0x3:0x113 / me=hex / subme=7 / psy=1 / psy_rd=1.00:0.00 / mixed_ref=1 / me_range=16 / chroma_me=1 / trellis=1 / 8x8dct=1 / cqm=0 / deadzone=21,11 / fast_pskip=1 / chroma_qp_offset=-2 / threads=3 / lookahead_threads=1 / sliced_threads=0 / nr=0 / decimate=1 / interlaced=0 / bluray_compat=0 / constrained_intra=0 / bframes=3 / b_pyramid=2 / b_adapt=1 / b_bias=0 / direct=1 / weightb=1 / open_gop=0 / weightp=2 / keyint=240 / keyint_min=23 / scenecut=40 / intra_refresh=0 / rc_lookahead=40 / rc=crf / mbtree=1 / crf=15.0 / qcomp=0.60 / qpmin=0 / qpmax=81 / qpstep=4 / ip_ratio=1.40 / aq=1:1.00
Default                                  : Yes
Forced                                   : No

Audio
ID                                       : 2
Format                                   : AAC
Format/Info                              : Advanced Audio Codec
Format profile                           : LC
Codec ID                                 : A_AAC
Duration                                 : 48 min 13 s
Bit rate                                 : 318 kb/s
Channel(s)                               : 2 channels
Channel positions                        : Front: L R
Sampling rate                            : 48.0 kHz
Frame rate                               : 46.875 FPS (1024 spf)
Compression mode                         : Lossy
Delay relative to video                  : 9 ms
Stream size                              : 110 MiB (11%)
Language                                 : Japanese
Default                                  : Yes
Forced                                   : No

Menu
00:00:00.000                             : en:00:00:00.000
00:01:48.025                             : en:00:01:48.025
00:03:18.073                             : en:00:03:18.073
00:03:21.076                             : en:00:03:21.076
00:07:18.855                             : en:00:07:18.855
00:10:18.701                             : en:00:10:18.701
00:12:53.272                             : en:00:12:53.272
00:14:08.097                             : en:00:14:08.097
00:22:30.140                             : en:00:22:30.140
00:24:02.650                             : en:00:24:02.650
00:25:42.666                             : en:00:25:42.666
00:27:12.714                             : en:00:27:12.714
00:27:15.717                             : en:00:27:15.717
00:31:34.226                             : en:00:31:34.226
00:34:19.683                             : en:00:34:19.683
00:38:40.777                             : en:00:38:40.777
00:44:06.686                             : en:00:44:06.686
00:45:36.692                             : en:00:45:36.692

Other Files in this Torrent
01 - Mayoi Hell.mkv
beta
Anime DDL+NZB mirror
Current Time: 30/11/2021 09:28



About/FAQs

Discord