File Size292.3 MB (306,528,605 bytes)
DownloadAnonFiles | ClickNUpload | DownloadGG | MultiUp
  • BdUpload
  • DownAce
  • Fichier
  • FileCloud
  • Filerio
  • FilesCdn
  • IndiShare
  • Kbagi
  • Turbobit
  • UpToBox
  • Uppit
| UploadBox | ZippyShare
HashesCRC32: 053D85EB, MD5: 50C933AE0008F25F76B2D1D67314CFEB, SHA1: C45A2E06935773564B9B54AE312D97144F738EFB, SHA256: 1BD567001A3A77F3F558655DB3A54C2525E2009128CECC7E4DF363708CBE6CCA, ED2K: F226D5AA1EE08549FF5AEED38ED97D12
Screenshots
screenshotscreenshotscreenshotscreenshotscreenshot
SubtitlesAll Attachments | Subs by KAA [eng, ASS]
Additional Info
General
Unique ID                                : 197763794656985711722694938608539602393 (0x94C7EBE12B389F64BDAA9342661D0DD9)
Complete name                            : [x4subs] Kino no Tabi - 08 [Hi10 576p] [053D85EB].mkv
Format                                   : Matroska
Format version                           : Version 4
File size                                : 292 MiB
Duration                                 : 24 min 23 s
Overall bit rate mode                    : Variable
Overall bit rate                         : 1 676 kb/s
Encoded date                             : UTC 2013-08-18 13:53:15
Writing application                      : mkvmerge v6.3.0 ('You can't stop me!') built on Jun 28 2013 20:09:41
Writing library                          : libebml v1.3.0 + libmatroska v1.4.0
Attachments                              : corbelb.ttf / CUSHNGH.TTF / RuzickaTypeK.ttf / segoeprb.ttf / corbel.ttf

Video
ID                                       : 1
Format                                   : AVC
Format/Info                              : Advanced Video Codec
Format profile                           : High 10@L4.1
Format settings                          : CABAC / 5 Ref Frames
Format settings, CABAC                   : Yes
Format settings, Reference frames        : 5 frames
Codec ID                                 : V_MPEG4/ISO/AVC
Duration                                 : 24 min 23 s
Bit rate                                 : 1 482 kb/s
Width                                    : 1 024 pixels
Height                                   : 576 pixels
Display aspect ratio                     : 16:9
Frame rate mode                          : Constant
Frame rate                               : 23.976 (24000/1001) FPS
Color space                              : YUV
Chroma subsampling                       : 4:2:0
Bit depth                                : 10 bits
Scan type                                : Progressive
Bits/(Pixel*Frame)                       : 0.105
Stream size                              : 259 MiB (88%)
Writing library                          : x264 core 135 r2345kMod f0c1c53
Encoding settings                        : cabac=1 / ref=5 / deblock=1:0:0 / analyse=0x3:0x113 / me=umh / subme=8 / psy=1 / fade_compensate=0.00 / psy_rd=0.90:0.05 / mixed_ref=1 / me_range=16 / chroma_me=1 / trellis=1 / 8x8dct=1 / cqm=0 / deadzone=21,11 / fast_pskip=0 / chroma_qp_offset=-3 / threads=6 / lookahead_threads=1 / sliced_threads=0 / nr=0 / decimate=1 / interlaced=0 / bluray_compat=0 / constrained_intra=0 / bframes=3 / b_pyramid=2 / b_adapt=2 / b_bias=0 / direct=3 / weightb=1 / open_gop=0 / weightp=2 / keyint=250 / keyint_min=23 / scenecut=40 / intra_refresh=0 / rc_lookahead=50 / rc=crf / mbtree=1 / crf=18.0000 / qcomp=0.60 / qpmin=0 / qpmax=81 / qpstep=4 / ip_ratio=1.40 / aq=1:1.00
Default                                  : Yes
Forced                                   : No

Audio
ID                                       : 2
Format                                   : Vorbis
Format settings, Floor                   : 1
Codec ID                                 : A_VORBIS
Duration                                 : 24 min 23 s
Bit rate mode                            : Variable
Bit rate                                 : 160 kb/s
Channel(s)                               : 2 channels
Sampling rate                            : 48.0 kHz
Compression mode                         : Lossy
Stream size                              : 27.9 MiB (10%)
Writing library                          : Lancer 20110424 (UTC 2011-04-24)
Language                                 : Japanese
Default                                  : Yes
Forced                                   : No

Text
ID                                       : 3
Format                                   : ASS
Codec ID                                 : S_TEXT/ASS
Codec ID/Info                            : Advanced Sub Station Alpha
Compression mode                         : Lossless
Title                                    : Subs by KAA
Language                                 : English
Default                                  : Yes
Forced                                   : No

Other Files in this Torrent
[x4subs] Kino no Tabi - 08 [Hi10 576p] [053D85EB].mkv
beta
Anime DDL+NZB mirror
Current Time: 24/06/2024 05:55



About/FAQs

Discord