File Size375.5 MB (393,703,244 bytes)
DownloadAnonFiles | ClickNUpload | DownloadGG | MultiUp
  • BdUpload
  • DownAce
  • Fichier
  • FileCloud
  • Filerio
  • FilesCdn
  • IndiShare
  • Kbagi
  • Turbobit
  • UpToBox
  • Uppit
| UploadBox | ZippyShare
HashesCRC32: 35E092A7, MD5: 2155D308A781D41A3F83AC3A2D321B9D, SHA1: 51B591AF0F447A1D707863574FCFC2F0F5BC39C7, SHA256: 42CC1CA9A5671C866E08602C6A231048FA9FC3710C2E26CC7E0C6DBC2F014095, ED2K: FFE0A108CA47DA3DDCC109153F61BEC1
Screenshots
screenshotscreenshotscreenshotscreenshotscreenshot
SubtitlesAll Attachments | Subs by KAA [eng, ASS]
Additional Info
General
Unique ID                                : 207723642224965102842834233442419972193 (0x9C461E470FF0992BBD79044E02D99861)
Complete name                            : [x4subs] Kino no Tabi - 06 [Hi10 576p] [35E092A7].mkv
Format                                   : Matroska
Format version                           : Version 4
File size                                : 375 MiB
Duration                                 : 24 min 21 s
Overall bit rate mode                    : Variable
Overall bit rate                         : 2 156 kb/s
Encoded date                             : UTC 2013-08-18 13:49:00
Writing application                      : mkvmerge v6.3.0 ('You can't stop me!') built on Jun 28 2013 20:09:41
Writing library                          : libebml v1.3.0 + libmatroska v1.4.0
Attachments                              : corbelb.ttf / CUSHNGH.TTF / RuzickaTypeK.ttf / segoeprb.ttf / corbel.ttf

Video
ID                                       : 1
Format                                   : AVC
Format/Info                              : Advanced Video Codec
Format profile                           : High 10@L4.1
Format settings                          : CABAC / 5 Ref Frames
Format settings, CABAC                   : Yes
Format settings, Reference frames        : 5 frames
Codec ID                                 : V_MPEG4/ISO/AVC
Duration                                 : 24 min 21 s
Bit rate                                 : 1 953 kb/s
Width                                    : 1 024 pixels
Height                                   : 576 pixels
Display aspect ratio                     : 16:9
Frame rate mode                          : Constant
Frame rate                               : 23.976 (24000/1001) FPS
Color space                              : YUV
Chroma subsampling                       : 4:2:0
Bit depth                                : 10 bits
Scan type                                : Progressive
Bits/(Pixel*Frame)                       : 0.138
Stream size                              : 340 MiB (91%)
Writing library                          : x264 core 135 r2345kMod f0c1c53
Encoding settings                        : cabac=1 / ref=5 / deblock=1:0:0 / analyse=0x3:0x113 / me=umh / subme=8 / psy=1 / fade_compensate=0.00 / psy_rd=0.90:0.05 / mixed_ref=1 / me_range=16 / chroma_me=1 / trellis=1 / 8x8dct=1 / cqm=0 / deadzone=21,11 / fast_pskip=0 / chroma_qp_offset=-3 / threads=6 / lookahead_threads=1 / sliced_threads=0 / nr=0 / decimate=1 / interlaced=0 / bluray_compat=0 / constrained_intra=0 / bframes=3 / b_pyramid=2 / b_adapt=2 / b_bias=0 / direct=3 / weightb=1 / open_gop=0 / weightp=2 / keyint=250 / keyint_min=23 / scenecut=40 / intra_refresh=0 / rc_lookahead=50 / rc=crf / mbtree=1 / crf=18.0000 / qcomp=0.60 / qpmin=0 / qpmax=81 / qpstep=4 / ip_ratio=1.40 / aq=1:1.00
Default                                  : Yes
Forced                                   : No

Audio
ID                                       : 2
Format                                   : Vorbis
Format settings, Floor                   : 1
Codec ID                                 : A_VORBIS
Duration                                 : 24 min 21 s
Bit rate mode                            : Variable
Bit rate                                 : 160 kb/s
Channel(s)                               : 2 channels
Sampling rate                            : 48.0 kHz
Compression mode                         : Lossy
Stream size                              : 27.9 MiB (7%)
Writing library                          : Lancer 20110424 (UTC 2011-04-24)
Language                                 : Japanese
Default                                  : Yes
Forced                                   : No

Text
ID                                       : 3
Format                                   : ASS
Codec ID                                 : S_TEXT/ASS
Codec ID/Info                            : Advanced Sub Station Alpha
Compression mode                         : Lossless
Title                                    : Subs by KAA
Language                                 : English
Default                                  : Yes
Forced                                   : No

Other Files in this Torrent
[x4subs] Kino no Tabi - 06 [Hi10 576p] [35E092A7].mkv
beta
Anime DDL+NZB mirror
Current Time: 24/06/2024 05:33



About/FAQs

Discord